Anonymous, доброй ночи, присоединяйтесь к нам в Telegram!, здесь всегда актуальный адрес сайта, оперативная поддержка и многое другое!

>

5.6

iTunes

7.4

iTunes

7.9

MVO

1

7.7

1 сезон

6.8

iTunes

7.3

1 сезон

13

6.7

1 сезон

8.3

RePack

30

ULTIMATE

pack

9.9

Лицензия

ВАЖНО

ИГРА 18+

pack

7.3

RePack

MK11

7.7

RePack

jed

7.8

RePack

fifa19

8.5

RePack

RDR2

RePack

NEED FOR SPEED™ PAYBACK

4 сезон

9 сезон

Бесстыжие 9 сезон

Все сериалы

все сериалы на PB.wtf

RePack

FAR CRY 5

Anonymous, доброй ночи, мы катастрофически не успеваем собрать деньги на оплату серверов, помогите нам пожалуйста 5,10,15р., для нас важна любая помощь . В качестве благодарности мы отключим Вам всю рекламу на сайте (укажите свой ник в строку Ваше имя)!

×
  
Magnet ссылка

Деффчонки / Сезон: 6 / Серии: 1-24 из 24 (Сергей Корягин, Нигина Сайфуллаева, Ольга Френкель) [2018, ситком, комедия, HDTVRip 720p] pb.wtf

Деффчонки через торрент pb.wtf

Размер: 16.75 GB | Добавлен: 3 года 1 мес. назад | Торрент скачан:52 раза
Смотреть онлайн Деффчонки | Скачать    Ребята, помогите собрать деньги на оплату серверов!!!

21-08-2018 03:50 Деффчонки Скачать торрент  

Деффчонки Год выпуска: 2018
Производство: Косфильм
Жанр: ситком, комедия
Продолжительность: ~00:26:00 серия
Субтитры: нет

Режиссёр: Сергей Корягин, Нигина Сайфуллаева, Ольга Френкель

В ролях:

Галина Боб, Таисия Вилкова, Анастасия Денисова, Полина Максимова, Алексей Воробьёв, Родион Юрин, Тимур Боканча, Александр Серов-Останкинский, Руслан Ягудин, Софья Урицкая, Наталья Унгард, Альбина Евтушевская, Андрис Лиелайс, Александр Горшков, Виталий Евдокимов, Алексей Паламарчук, Антон Аносов, Ярослав Рось, Александр Касаткин, Ольга Дибцева, Алёна Водонаева, Алёна Чехова, Ирина Гавра, Марина Барсукова

Описание:

Деффчонки 6 сезон - продолжение истории о четырех подругах, приехавших в поисках лучшей жизни из Саратова в Москву. В прошлом сезоне с ними произошли значительные перемены, даже свадьба была. Теперь девушки повзрослели, но им также хочется обыкновенного женского счастья. На протяжении пяти предыдущих сезонов Пална, Лёля и Бобылыч мечтали о красивой жизни в Москве… а в итоге возвращаются в Саратов… Почему? Так вышло! Но наши деффчонки всегда на позитиве, где бы не оказались. Эпичные фейлы и угарные ситуации, огромные и бессмысленные тараканы в голове, которые не спешат разбегаться, любовная лихорадка и ответы на вечные женские вопросы.



Качество: HDTVRip 720p
Формат: MKV
Видео кодек: H.264
Аудио кодек: AC3

Видео: MPEG4 AVC Video, H264, 16:9, 1280x720, 25 fps, ~4000 kbps, 0.174 bit/pixel
Аудио: AC3 Dolby Digital, 48 kHz, 2/0 (L,R) ch, 192 kbps
Раздача ведётся путём добавления новых серий, при каждом добавлении создаётся новый торрент. Чтобы начать докачку новой серии, пользователям необходимо сделать следующее:

- Остановить скачивание.
- Удалить старый торрент у себя из клиента (старые серии удалять не надо).
- Скачать новый торрент и запустить его у себя в клиенте вместо старого, при этом указать клиенту путь в старую папку куда и должно происходить скачивание новых серий.

Ваш клиент при этом должен произвести хеширование (проверку) старой папки (если не производит сам - помогите ему сделать это), и будет докачивать только те серии которых у вас ещё нет. Старые серии при этом не удаляются, а продолжают раздаваться!
Если вы уже удалили старые серии, то предотвратить повторную закачку старых серий можно, отжав галочку в соответствующих местах при запуске нового торрента. По возможности, желательно не удалять старые серии как можно дольше, чтобы релизер не столько продолжал раздавать старые серии, а смог сконцентрироваться на новых.
General
Unique ID : 201215900838708224228715693097352676131 (0x9760C5DAE343F1A9A6D3B94818F7C323)
Complete name : D:\Deffchonki.06.sezon.2018.HDTVRip.(720p).Nikolspup\Deffchonki.06.sezon.(01.seriya).2018.HDTVRip.(720p).Nikolspup.mkv
Format : Matroska
Format version : Version 4 / Version 2
File size : 780 MiB
Duration : 26 min 0 s
Overall bit rate : 4 192 kb/s
Encoded date : UTC 2018-08-13 18:36:50
Writing application : mkvmerge v7.8.0 ('River Man') 32bit built on Mar 27 2015 16:18:02
Writing library : libebml v1.3.1 + libmatroska v1.4.2

Video
ID : 1
Format : AVC
Format/Info : Advanced Video Codec
Format profile : High@L4.1
Format settings : CABAC / 9 Ref Frames
Format settings, CABAC : Yes
Format settings, ReFrames : 9 frames
Codec ID : V_MPEG4/ISO/AVC
Duration : 26 min 0 s
Bit rate : 4 000 kb/s
Width : 1 280 pixels
Height : 720 pixels
Display aspect ratio : 16:9
Frame rate mode : Constant
Frame rate : 25.000 FPS
Color space : YUV
Chroma subsampling : 4:2:0
Bit depth : 8 bits
Scan type : Progressive
Bits/(Pixel*Frame) : 0.174
Stream size : 744 MiB (95%)
Writing library : x264 core 146 r2538 121396c
Encoding settings : cabac=1 / ref=9 / deblock=1:-2:-1 / analyse=0x3:0x133 / me=umh / subme=9 / psy=1 / psy_rd=1.00:0.20 / mixed_ref=1 / me_range=32 / chroma_me=1 / trellis=2 / 8x8dct=1 / cqm=0 / deadzone=21,11 / fast_pskip=1 / chroma_qp_offset=-3 / threads=16 / lookahead_threads=8 / sliced_threads=0 / nr=0 / decimate=1 / interlaced=0 / bluray_compat=0 / constrained_intra=0 / bframes=11 / b_pyramid=2 / b_adapt=2 / b_bias=0 / direct=1 / weightb=1 / open_gop=0 / weightp=2 / keyint=250 / keyint_min=25 / scenecut=40 / intra_refresh=0 / rc=2pass / mbtree=0 / bitrate=4000 / ratetol=1.0 / qcomp=0.60 / qpmin=0 / qpmax=69 / qpstep=4 / cplxblur=20.0 / qblur=0.5 / ip_ratio=1.40 / pb_ratio=1.30 / aq=3:1.00
Default : No
Forced : No
Color range : Limited
Color primaries : BT.709
Transfer characteristics : BT.709
Matrix coefficients : BT.709

Audio
ID : 2
Format : AC-3
Format/Info : Audio Coding 3
Codec ID : A_AC3
Duration : 26 min 0 s
Bit rate mode : Constant
Bit rate : 192 kb/s
Channel(s) : 2 channels
Channel positions : Front: L R
Sampling rate : 48.0 kHz
Frame rate : 31.250 FPS (1536 SPF)
Bit depth : 16 bits
Compression mode : Lossy
Stream size : 35.7 MiB (5%)
Language : Russian
Service kind : Complete Main
Default : Yes
Forced : Yes
скриншот   скриншот   скриншот   скриншот  

скриншот   скриншот   скриншот   скриншот  
pb.wtf



Скачать Деффчонки через торрент https://c.radikal.ru/c03/1808/7b/8a3fb3a141e7.jpg Скачать, смотреть онлайн Деффчонки бесплантно в хорошем качестве Описание: Деффчонки 6 сезон - продолжение истории о четырех подругах, приехавших в поисках лучшей жизни из Саратова в Москву. В прошлом ... 9.9 10 8
Info! Золотая раздача, скачанное не засчитывается.
Торрент: Зарегистрирован [2018-08-31 07:22] · скачан: 52 раз
Статус: √ проверено
Размер: 16.75 GB
Как cкачать? Как скачать Деффчонки через торрент | UTorrent

% Раздел Тема Автор DL S | L
TNT serials [ 8.76 GB ] Деффчонки / Сезон: 6 / Серии: 1-24 из 24 [2018 Ситком HDTVRip-AVC] bober100 Скачать
1 | 0
TNT serials [ 7.4 GB ] Деффчонки / Сезон: 6 / Серии: 1-24 из 24 [2018 Ситком SATRip] bober100 Скачать
1 | 0


Последний раз редактировалось: bober100 (2018-08-31 07:22), всего редактировалось 1 раз

28-11-2019 20:33  

Отключить всю рекламу на сайте

30-08-2018 07:08 Деффчонки Скачать торрент  

Деффчонки / Сезон: 6 / Серии: 1-22 из 24...
Разве 24?
Тогда здесь: https://pb.wtf/topic/293986/ тоже добавьте...
Благодарю!pb.wtf



30-08-2018 07:55 Деффчонки Скачать торрент  

kapnn писал(а):

Деффчонки / Сезон: 6 / Серии: 1-22 из 24...
Разве 24?
Тогда здесь: https://pb.wtf/topic/293986/ тоже добавьте...
Благодарю!

Как обновлю изменю)pb.wtf



    Дорогой пользователь! Огромная просьба, поблагодарите релизера, оцените раздачу и оставьте свои комментарий, если Вы скачали Деффчонки через торрент бесплатно!
    Комментировать посты могут только пользователи прошедшие не сложную регистрацию
    Показать сообщения:    

    Деффчонки через торрент
    Скачать бесплатно Деффчонки
    Деффчонки скачать торрент
    Деффчонки смотреть онлайн
    Cкачать фильм Деффчонки бесплатно
    Деффчонки скачать торрент в хорошем качестве
    Деффчонки смотреть онлайн бесплатно в хорошем качестве


    Вы не можете начинать темы
    Вы не можете отвечать на сообщения
    Вы не можете редактировать свои сообщения
    Вы не можете удалять свои сообщения
    Вы не можете голосовать в опросах
    Вы не можете прикреплять файлы к сообщениям
    Вы можете скачивать файлы