новый адрес пиратбит piratbit
Мега распродажа FORZA HORIZON 4 ULTIMATE+ВСЕ DLC+ОНЛАЙН всего за 499р. 349 руб. (супер цена). Внимание количество ограничено!!!

iTunes

1+1

iTunes

мы

iTunes

1

iTunes

Чернобыль

iTunes

Ральф против интернета

Лицензия

ПШазам

Лицензия

Игра престолов

Лицензия

30
pack

ВАЖНО

!!Акция!!

Alien_RageХит недели

RePack

Resident Evil 21

ИГРА 18+

pack

RePack

Metro:Exodus

!!Акция!!

Alien_Rage

RePack

fifa19

RePack

Assassins Creed: Odyssey

RePack

NEED FOR SPEED™ PAYBACK

3 сезон

9 сезон

Бесстыжие 9 сезон

Все сериалы

все сериалы на PB.wtf

RePack

FAR CRY 5
Ребята, катастрофически не хватает 1900р. для оплаты серверов за Октябрь (всвязи с блокировками трафик упал в 3 раза), 1-2р., выручайте.
  

Совершенно серьезно (Иван Пырьев) [1961, СССР, комедия SATRip от AVP Studio] pb.wtf

Совершенно серьезно через торрент pb.wtf

Размер: 746 MB | Добавлен: 1 год 2 мес. назад | Торрент скачан:16 раз
Скачать  

21-08-2018 08:27 Совершенно серьезно Скачать торрент  

Совершенно серьезно
Страна: СССР
Производство: Мосфильм

Жанр: комедия
Год выпуска: 1961
Продолжительность: 00:54:10

Перевод: Не требуется
Cубтитры: нет
Оригинальная аудиодорожка: русский

Режиссер: Иван Пырьев

В ролях:
Анатолий Папанов, Сергей Филиппов, Ростислав Плятт, Георгий Георгиу, Борис Новиков, Эмилия Трейвас, Рина Зелёная, Светлана Харитонова, Владимир Кулик, Мария Миронова, Мария Кравчуновская, Александр Белявский, Илья Рутберг, Татьяна Бестаева, Серафим Аникеев, Марина Полбенцева, Ольга Викландт, Павел Винник...
Об актёрах подробней

Описание:
Киноальманах состоит из четырёх новелл: «Как создавался Робинзон», реж. Э. Рязанов; «История с пирожками», реж. Н. Трахтенберг; «Иностранцы», реж. Э. Змойро; «Приятного аппетита», реж. В. Семаков. Поставлены они разными режиссерами под руководством классика режиссуры Ивана Пырьева.

Источник: DVB
Качество видео: SATRip
Формат видео: AVI

Видео: 704х528 (4:3), 25 fps, XviD ~ 1723 kbps avg, 0.185 bit/pixel
Аудио: 48 kHz, Dolby Digital AC3 2.0, 192 kbps

Раздача от:
Общее
Полное имя : Sovershenno.serezno.1961.SATRip_[New-team]_by_AVP_Studio.avi
Формат : AVI
Формат/Информация : Audio Video Interleave
Размер файла : 746 Мбайт
Продолжительность : 54 м. 10 с.
Общий поток : 1925 Кбит/сек
Программа кодирования : VirtualDubMod 1.5.10.3 | www.virtualdub-fr.org || (build 2550/release)
Библиотека кодирования : VirtualDubMod build 2550/release

Видео
Идентификатор : 0
Формат : MPEG-4 Visual
Профиль формата : Advanced Simple@L5
Настройки формата : BVOP1 / Custom Matrix
Параметр BVOP формата : 1
Параметр QPel формата : Нет
Параметр GMC формата : Без точки перехода
Параметр матрицы формата : Выборочная
Идентификатор кодека : XVID
Идентификатор кодека/Подсказка : XviD
Продолжительность : 54 м. 10 с.
Битрейт : 1723 Кбит/сек
Ширина : 704 пикселя
Высота : 528 пикселей
Соотношение сторон : 4:3
Частота кадров : 25,000 кадров/сек
Цветовое пространство : YUV
Субдискретизация насыщенности : 4:2:0
Битовая глубина : 8 бит
Тип развёртки : Прогрессивная
Метод сжатия : С потерями
Бит/(Пиксели*Кадры) : 0.185
Размер потока : 667 Мбайт (90%)
Библиотека кодирования : XviD 73

Аудио
Идентификатор : 1
Формат : AC-3
Формат/Информация : Audio Coding 3
Идентификатор кодека : 2000
Продолжительность : 54 м. 10 с.
Вид битрейта : Постоянный
Битрейт : 192 Кбит/сек
Каналы : 2 канала
Расположение каналов : Front: L R
Частота : 48,0 КГц
Частота кадров : 31,250 кадров/сек (1536 SPF)
Битовая глубина : 16 бит
Метод сжатия : С потерями
Размер потока : 74,4 Мбайт (10%)
Выравнивание : Разделение по промежуткам
Продолжительность промежутка : 40 мс. (1,00 видеокадр)
Время предзагрузки промежутка : 500 мс
pb.wtf



Скачать Совершенно серьезно через торрент http://picplus.ru/img/1808/21/55ab8f9f.png Скачать фильм Совершенно серьезно через торрент бесплантно в хорошем качестве Описание:Киноальманах состоит из четырёх новелл: «Как создавался Робинзон», реж. Э. Рязанов; «История с пирожками», реж. Н. Трахтенберг; ... 5 10 1
Info! Золотая раздача, скачанное не засчитывается.
Торрент: Зарегистрирован [2018-08-21 08:27] · скачан: 16 раз
Статус: √ проверено
Размер: 746 MB
Как cкачать? Как скачать Совершенно серьезно через торрент | qTorrent

% Раздел Тема Автор DL S | L
Кино СССР [ 745 MB ] Совершенно серьезно [1961 СССР SATRip-AVC от AVP Studio] AVP Studio Скачать
1 | 0
Кино СССР [ 555 MB ] Совершенно серьезно / Совершенно серьезно [1961 DVDRip] Flint3 Скачать
1 | 0


>> Регистрируемся здесь <<






Отзывы и комментарии о схеме читаем и пишем здесь: ---> Отзывы и комментарии о схеме

Новые благодарочки в телеграм довольных пользователей:
скриншот   скриншот   скриншот   скриншот   скриншот
    Дорогой пользователь! Огромная просьба, поблагодарите релизера, оцените раздачу и оставьте свои комментарий, если Вы скачали Совершенно серьезно через торрент бесплатно! Внесите свою лепту в развитие PiratBit!
    Комментировать посты могут только пользователи прошедшие не сложную регистрацию
    Показать сообщения:    

    Совершенно серьезно через торрент
    Скачать бесплатно Совершенно серьезно
    Совершенно серьезно скачать торрент
    Совершенно серьезно смотреть онлайн
    Cкачать фильм Совершенно серьезно бесплатно
    Совершенно серьезно скачать торрент в хорошем качестве
    Совершенно серьезно смотреть онлайн бесплатно в хорошем качестве


    Вы не можете начинать темы
    Вы не можете отвечать на сообщения
    Вы не можете редактировать свои сообщения
    Вы не можете удалять свои сообщения
    Вы не можете голосовать в опросах
    Вы не можете прикреплять файлы к сообщениям
    Вы можете скачивать файлы