Ссылка на приватное зеркало нашего сайта всего за 1$. Внимание количество ограничено!!!

2 сезон

iTunes

1 сезон

1

2 сезон

2 сезон

iTunes

1 сезон

RePack

30

Новинка

ВАЖНО

ИГРА 18+

pack

RePack

MK11
pack

Забери бонус

RePack

jed

!!Акция!!

Alien_Rage

RePack

fifa19

RePack

Assassins Creed: Odyssey

RePack

NEED FOR SPEED™ PAYBACK

4 сезон

9 сезон

Бесстыжие 9 сезон

Все сериалы

все сериалы на PB.wtf

RePack

FAR CRY 5
  

Сбой / Glitch / Сезон 2 / Серии 1-6 из 6 (Эмма Фриман) [2017 г., триллер, мистика, драма, HDTVRip-AVC] - DVO (ColdFilm) pb.wtf

Сбой через торрент pb.wtf

Размер: 3.1 GB | Добавлен: 2 года 3 мес. назад | Торрент скачан:53 раза
Скачать  

21-08-2018 09:32 Сбой Скачать торрент  

Сбой / GlitchГод выпуска: 2017
Страна: Австралия
Жанр: триллер, мистика, драма
Продолжительность: 6 х ~ 00:55:00
Перевод: Любительский двухголосый (ColdFilm)
Субтитры: отсутствуют
Реклама: отсутствует

Режиссер: Эмма Фриман
В ролях: Патрик Браммелл, Женевьев О’Рейли, Эмма Бут, Эмили Барклай, Нед Деннехи, Шон Кинэн, Эндрю МакФарлэйн, Даниэла Фариначчи, Ханна Мансон, Аарон Л. МакГрат

rating

Описание: Действие сериала разворачивается в небольшом австралийском городке Юрана. Во время очередного дежурства старший констебль Джеймс Хейс получает ночью вызов о вандализме на кладбище. Оказавшись на месте, Хейс становится свидетелем того, как шесть человек необъяснимо воскресли. Но воскресли ли они? Как это возможно? Кто они теперь и зачем вернулись?... Фильм, безусловно, шокирует своим поворотом. И он там будет ещё не один!

Доп. информация: ПРИСУТСТВУЕТ НЕНОРМАТИВНАЯ ЛЕКСИКА

Качество: HDTVRip-AVC
Формат: MKV
Видео кодек: H.264
Аудио кодек: AC3
Видео: AVC, 1024x576 (16:9), 25 fps ~ 950 Kbps
Аудио#1: 48 KHz, 2 ch ~ 192 Kb/s (русский)
Аудио#2: 48 KHz, 2 ch ~ 192 Kb/s (английский)

Общее
Уникальный идентификатор : 185174120045068143163576199673140238841 (0x8B4F3CFF656758E89031CB75414459F9)
Полное имя : Q:TorFGlitch.S02.PDTVGlitch.S02E01.PDTV.mkv
Формат : Matroska
Версия формата : Version 2
Размер файла : 546 Мбайт
Продолжительность : 59 м.
Общий поток : 1285 Кбит/сек
Дата кодирования : UTC 2018-05-19 16:41:30
Программа кодирования : mkvmerge v5.4.0 ('Piper') built on Mar 10 2012 13:34:39
Библиотека кодирования : libebml v1.2.3 + libmatroska v1.3.0

Видео
Идентификатор : 1
Формат : AVC
Формат/Информация : Advanced Video Codec
Профиль формата : Main@L4.0
Параметр CABAC формата : Да
Параметр ReFrames формата : 4 кадра
Идентификатор кодека : V_MPEG4/ISO/AVC
Продолжительность : 59 м.
Битрейт : 900 Кбит/сек
Ширина : 1024 пикселя
Высота : 576 пикселей
Соотношение сторон : 16:9
Режим частоты кадров : Переменный
Частота кадров : 25,000 кадров/сек
Цветовое пространство : YUV
Субдискретизация насыщенности : 4:2:0
Битовая глубина : 8 бит
Тип развёртки : Прогрессивная
Бит/(Пиксели*Кадры) : 0.061
Размер потока : 372 Мбайт (68%)
Библиотека кодирования : x264 core 142 r2479 dd79a61
Настройки программы : cabac=1 / ref=1 / deblock=1:0:0 / analyse=0x1:0x1 / me=dia / subme=1 / psy=1 / psy_rd=1.00:0.00 / mixed_ref=0 / me_range=16 / chroma_me=1 / trellis=0 / 8x8dct=0 / cqm=0 / deadzone=21,11 / fast_pskip=1 / chroma_qp_offset=0 / threads=12 / lookahead_threads=2 / sliced_threads=0 / nr=0 / decimate=1 / interlaced=0 / bluray_compat=0 / constrained_intra=0 / bframes=3 / b_pyramid=2 / b_adapt=1 / b_bias=0 / direct=1 / weightb=1 / open_gop=0 / weightp=1 / keyint=250 / keyint_min=25 / scenecut=40 / intra_refresh=0 / rc_lookahead=0 / rc=2pass / mbtree=0 / bitrate=900 / ratetol=1.0 / qcomp=0.60 / qpmin=0 / qpmax=69 / qpstep=4 / cplxblur=20.0 / qblur=0.5 / vbv_maxrate=20000 / vbv_bufsize=25000 / nal_hrd=none / filler=0 / ip_ratio=1.40 / pb_ratio=1.30 / aq=1:1.00
Язык : English
Default : Да
Forced : Нет
Основные цвета : BT.709-5, BT.1361, IEC 61966-2-4, SMPTE RP177
Характеристики трансфера : BT.709-5, BT.1361
Коэффициенты матрицы : BT.709-5, BT.1361, IEC 61966-2-4 709, SMPTE RP177

Аудио #1
Идентификатор : 2
Формат : AC-3
Формат/Информация : Audio Coding 3
Расширение режима : CM (complete main)
Идентификатор кодека : A_AC3
Продолжительность : 59 м.
Вид битрейта : Постоянный
Битрейт : 192 Кбит/сек
Каналы : 2 канала
Расположение каналов : Front: L R
Частота : 48,0 КГц
Битовая глубина : 16 бит
Метод сжатия : С потерями
Размер потока : 81,6 Мбайт (15%)
Заголовок : L2CF
Язык : Russian
Default : Да
Forced : Нет

Аудио #2
Идентификатор : 3
Формат : AC-3
Формат/Информация : Audio Coding 3
Расширение режима : CM (complete main)
Идентификатор кодека : A_AC3
Продолжительность : 59 м.
Вид битрейта : Постоянный
Битрейт : 192 Кбит/сек
Каналы : 2 канала
Расположение каналов : Front: L R
Частота : 48,0 КГц
Битовая глубина : 16 бит
Метод сжатия : С потерями
Размер потока : 81,6 Мбайт (15%)
Язык : English
Default : Нет
Forced : Нет

pb.wtf



Скачать Сбой через торрент http://pic.kartinco.top/images/11/uesml.jpg Скачать фильм Сбой через торрент бесплантно в хорошем качестве Описание: Действие сериала разворачивается в небольшом австралийском городке Юрана. Во время очередного дежурства старший констебль Джеймс ... 10 10 1
Info! Золотая раздача, скачанное не засчитывается.
Торрент: Зарегистрирован [2018-08-21 09:32] · скачан: 53 раз
Статус: √ проверено
Размер: 3.1 GB
Как cкачать? Как скачать Сбой через торрент | qTorrent

28-11-2019 20:33  

Отключить всю рекламу на сайте

    Дорогой пользователь! Огромная просьба, поблагодарите релизера, оцените раздачу и оставьте свои комментарий, если Вы скачали Сбой через торрент бесплатно! Внесите свою лепту в развитие PiratBit!
    Комментировать посты могут только пользователи прошедшие не сложную регистрацию
    Показать сообщения:    

    Сбой через торрент
    Скачать бесплатно Сбой
    Сбой скачать торрент
    Сбой смотреть онлайн
    Cкачать фильм Сбой бесплатно
    Сбой скачать торрент в хорошем качестве
    Сбой смотреть онлайн бесплатно в хорошем качестве


    Вы не можете начинать темы
    Вы не можете отвечать на сообщения
    Вы не можете редактировать свои сообщения
    Вы не можете удалять свои сообщения
    Вы не можете голосовать в опросах
    Вы не можете прикреплять файлы к сообщениям
    Вы можете скачивать файлы