Ссылка на приватное зеркало нашего сайта всего за 1$. Внимание количество ограничено!!!

2 сезон

iTunes

1 сезон

1

2 сезон

2 сезон

iTunes

1 сезон

RePack

30

Новинка

ВАЖНО

ИГРА 18+

pack

RePack

MK11
pack

Забери бонус

RePack

jed

!!Акция!!

Alien_Rage

RePack

fifa19

RePack

Assassins Creed: Odyssey

RePack

NEED FOR SPEED™ PAYBACK

4 сезон

9 сезон

Бесстыжие 9 сезон

Все сериалы

все сериалы на PB.wtf

RePack

FAR CRY 5
  

Реинкарнация / Hereditary (Ари Астер) [2018, ужасы, триллер, драма, детектив, WEB-DL 720p] DUB [iTunes] pb.wtf

Реинкарнация через торрент pb.wtf

Размер: 4.35 GB | Добавлен: 2 года 3 мес. назад | Торрент скачан:254 раза
Скачать  

21-08-2018 11:51 Реинкарнация Скачать торрент  

Реинкарнация / Hereditary«У каждой родословной есть свои тайны»
Год выпуска: 2018
Страна: США
Жанр: ужасы, триллер, драма, детектив
Продолжительность: 02:07:15
Перевод: Дублированный | iTunes
Субтитры: Английские

Режиссер: Ари Астер

rating

В ролях:

Алекс Вулф, Гэбриел Бирн, Тони Коллетт, Милли Шапиро, Кристи Саммерхэйс, Морган Ланд, Мэллори Бехтель, Джейк Браун, Харрисон Нелл, Брианн Рейчел

Описание:

После смерти матери Энни Грэхем в её ранее спокойном доме начинает твориться нечто необъяснимое. Теперь под угрозой жизнь её близких. С каждым днём открываются новые ужасающие секреты их семьи. Энни осознаёт, что эти кошмары берут своё начало в далёком прошлом. Сможет ли она найти ключ к тайне зловещего проклятия, которое передаётся из поколения в поколение...

Качество: WEB-DL 720p
Формат: MKV

Видео#1: MPEG-4 AVC, 1280x634, 4104 Kbit/s, 23.976 fps
Аудио: 48 kHz, AC3, 5.1, 384 Kbps | iTunes | RUS |
Аудио#2: 48 kHz, AC3, 5.1, 384 Kbps | Оригинал | ENG |
скриншот  скриншот  скриншот  скриншот  скриншот  

General
Unique ID : 226180058877201627561110681240550809560 (0xAA28B1DFD22B81D7A1C8C0C73F589FD8)
Complete name : D:Video111Hereditary.2018.WEB-DL.720p.ExKinoRay.mkv
Format : Matroska
Format version : Version 4 / Version 2
File size : 4.35 GiB
Duration : 2 h 7 min
Overall bit rate : 4 874 kb/s
Movie name : Hereditary 2018 from ExKinoRay
Encoded date : UTC 2018-08-21 09:44:10
Writing application : mkvmerge v7.3.0 ('Nouages') 64bit built on Oct 22 2014 18:53:34
Writing library : libebml v1.3.0 + libmatroska v1.4.1

Video
ID : 1
Format : AVC
Format/Info : Advanced Video Codec
Format profile : High@L3.1
Format settings : 2 Ref Frames
Format settings, CABAC : No
Format settings, ReFrames : 2 frames
Codec ID : V_MPEG4/ISO/AVC
Duration : 2 h 7 min
Bit rate : 4 104 kb/s
Width : 1 280 pixels
Height : 634 pixels
Display aspect ratio : 2.019
Frame rate mode : Constant
Frame rate : 23.976 (23976/1000) FPS
Color space : YUV
Chroma subsampling : 4:2:0
Bit depth : 8 bits
Scan type : Progressive
Bits/(Pixel*Frame) : 0.211
Stream size : 3.66 GiB (84%)
Language : English
Default : Yes
Forced : No
Color range : Limited
Color primaries : BT.709
Transfer characteristics : BT.709
Matrix coefficients : BT.709

Audio #1
ID : 2
Format : AC-3
Format/Info : Audio Coding 3
Commercial name : Dolby Digital
Codec ID : A_AC3
Duration : 2 h 7 min
Bit rate mode : Constant
Bit rate : 384 kb/s
Channel(s) : 6 channels
Channel positions : Front: L C R, Side: L R, LFE
Sampling rate : 48.0 kHz
Frame rate : 31.250 FPS (1536 SPF)
Bit depth : 16 bits
Compression mode : Lossy
Stream size : 351 MiB (8%)
Title : iTunes
Language : Russian
Service kind : Complete Main
Default : Yes
Forced : Yes

Audio #2
ID : 3
Format : AC-3
Format/Info : Audio Coding 3
Commercial name : Dolby Digital
Codec ID : A_AC3
Duration : 2 h 7 min
Bit rate mode : Constant
Bit rate : 384 kb/s
Channel(s) : 6 channels
Channel positions : Front: L C R, Side: L R, LFE
Sampling rate : 48.0 kHz
Frame rate : 31.250 FPS (1536 SPF)
Bit depth : 16 bits
Compression mode : Lossy
Stream size : 351 MiB (8%)
Title : Original
Language : English
Service kind : Complete Main
Default : No
Forced : No

Text
ID : 4
Format : UTF-8
Codec ID : S_TEXT/UTF8
Codec ID/Info : UTF-8 Plain Text
Duration : 2 h 0 min
Bit rate : 33 b/s
Count of elements : 1018
Stream size : 29.5 KiB (0%)
Title : Full
Language : English
Default : No
Forced : No

Menu
00:00:00.000 : en:1
00:07:10.000 : en:2
00:13:28.000 : en:3
00:19:15.000 : en:4
00:25:35.000 : en:5
00:32:49.000 : en:6
00:39:23.000 : en:7
00:47:41.000 : en:8
00:51:03.000 : en:9
00:56:27.000 : en:10
01:04:20.000 : en:11
01:10:57.000 : en:12
01:16:27.000 : en:13
01:24:56.000 : en:14
01:32:11.000 : en:15
01:37:20.000 : en:16
01:42:18.000 : en:17
01:50:51.000 : en:18
01:58:34.000 : en:19
02:03:18.000 : en:20

pb.wtf



Скачать Реинкарнация через торрент http://img11.lostpic.net/2018/08/20/68126c215683e9e0679943ef6b18e48a.jpg Скачать фильм Реинкарнация через торрент бесплантно в хорошем качестве Описание: После смерти матери Энни Грэхем в её ранее спокойном доме начинает твориться нечто необъяснимое. Теперь под угрозой жизнь её ... 9.6 10 12
Торрент: Зарегистрирован [2018-08-21 11:51] · скачан: 254 раз
Статус: √ проверено
Размер: 4.35 GB
Как cкачать? Как скачать Реинкарнация через торрент | qTorrent

% Раздел Тема Автор DL S | L
Фильмы 2018 [DVDrip, WEB-DLRip, HDrip] (DUB, MVO) [ 1.46 GB ] Реинкарнация / Hereditary [2018 HDRip-AVC] DUB [] bober100 Скачать
2 | 0
Ultra HD (UHD: 2K, 4K, 8K) — видео сверхвысокой чёткости [ 67.14 GB ] Реинкарнация / Hereditary [2018 UHD BDRemux 2160p] [Dolby Vision TV] DUB [] bober100 Скачать
1 | 0
Ultra HD (UHD: 2K, 4K, 8K) — видео сверхвысокой чёткости [ 67.98 GB ] Реинкарнация / Hereditary [2018 UHD BDRemux 2160p] DUB [] + AVO [С. Визгунов] sheker187 Скачать
1 | 0
Ultra HD (UHD: 2K, 4K, 8K) — видео сверхвысокой чёткости [ 66.59 GB ] Реинкарнация / Hereditary [2018 UHD BDRemux 2160p] DUB [] bober100 Скачать
1 | 0
Фильмы 2018 [DVDrip, WEB-DLRip, HDrip] (DUB, MVO) [ 1.46 GB ] Реинкарнация / Hereditary [2018 BDRip] - [] Twi7ter Скачать
1 | 0
Фильмы 2018 [DVDrip, WEB-DLRip, HDrip] (DUB, MVO) [ 2.18 GB ] Реинкарнация / Hereditary [2018 BDRip] - [] Twi7ter Скачать
1 | 0
Ultra HD (UHD: 2K, 4K, 8K) — видео сверхвысокой чёткости [ 79.49 GB ] Реинкарнация / Hereditary [2018 UHD Blu-Ray 2160p] [HDR + Dolby Vision] sheker187 Скачать
1 | 0

28-11-2019 20:33  

Отключить всю рекламу на сайте

22-08-2018 10:53 Реинкарнация Скачать торрент  

Вот это кино. Твою ж ... Давно такого не было.pb.wtf



    Дорогой пользователь! Огромная просьба, поблагодарите релизера, оцените раздачу и оставьте свои комментарий, если Вы скачали Реинкарнация через торрент бесплатно! Внесите свою лепту в развитие PiratBit!
    Комментировать посты могут только пользователи прошедшие не сложную регистрацию
    Показать сообщения:    

    Реинкарнация через торрент
    Скачать бесплатно Реинкарнация
    Реинкарнация скачать торрент
    Реинкарнация смотреть онлайн
    Cкачать фильм Реинкарнация бесплатно
    Реинкарнация скачать торрент в хорошем качестве
    Реинкарнация смотреть онлайн бесплатно в хорошем качестве


    Вы не можете начинать темы
    Вы не можете отвечать на сообщения
    Вы не можете редактировать свои сообщения
    Вы не можете удалять свои сообщения
    Вы не можете голосовать в опросах
    Вы не можете прикреплять файлы к сообщениям
    Вы можете скачивать файлы