Ссылка на приватное зеркало нашего сайта всего за 1$. Внимание количество ограничено!!!

2 сезон

iTunes

1 сезон

1

2 сезон

2 сезон

iTunes

1 сезон

RePack

30

Ultimate

ВАЖНО

ИГРА 18+

pack

RePack

MK11
pack

Забери бонус

RePack

jed

!!Акция!!

Alien_Rage

RePack

fifa19

RePack

Assassins Creed: Odyssey

RePack

NEED FOR SPEED™ PAYBACK

4 сезон

9 сезон

Бесстыжие 9 сезон

Все сериалы

все сериалы на PB.wtf

RePack

FAR CRY 5
  

Американский вандал / American Vandal / Сезон: 1 / Серии: 1-8 из 8 (Тони Ясенда) [2017, Комедия, детектив, WEBRip] MVO [Good People] pb.wtf

Американский вандал через торрент pb.wtf

Размер: 3.47 GB | Добавлен: 2 года 3 мес. назад | Торрент скачан:45 раз
Скачать  

21-08-2018 12:23 Американский вандал Скачать торрент  

Американский вандал / American Vandal

Год выпуска: 2017
Страна: США
Жанр: Комедия, детектив
Продолжительность: ~ 00:35:00
Перевод: Профессиональный (многоголосый закадровый) | Good People присутствует процент ненормативной лексики
Субтитры: отсутствуют

Режиссёр: Тони Ясенда

В ролях:

Тайлер Альварес, Гриффин Глюк, Джимми Татро, Камилла Хайд, Эдуардо Франко, Лукас Гейдж, Джессика Хуарес, Лу Уилсон, Камилла Рамзи, Калум Уорти, Джи Ханнелиус, Коди Вей-Хо Ли, Саксон Шарбино, Габриела Фрескес и др.

Описание:

Вся школа в шоке: кто-то нарисовал гигантские члены на 27 автомобилях на местной парковке. Главный подозреваемый — местный хулиган, помешанный на рисовании пенисов. Однако правда ли это он, или его пытаются подставить?

rating Сэмпл


Качество: WEBRip
Формат: AVI

Видео: XviD, ~ 1400 kbps, 720x400, 23.976 fps
Аудио 1: MP3, 48,0 КГц, 2 ch, 128 kbps - RUS
Аудио 2: MP3, 48,0 КГц, 2 ch, 128 kbps - ENG


Реклама: аудио, два раза в начале и в конце по 12 секунд
Общее
Полное имя                               : I:\GoodPeople\American Vandal. Season 1 (WEBRip l 400p l Good People)\American.Vandal.S01E01.WEBRip.Rus.Eng.GoodPeople.avi
Формат                                   : AVI
Формат/Информация                        : Audio Video Interleave
Размер файла                             : 450 Мбайт
Продолжительность                        : 35 м. 36 с.
Общий поток                              : 1769 Кбит/сек
Программа кодирования                    : VirtualDubMod 1.5.10.3 | www.virtualdub-fr.org || (build 2550/release)
Библиотека кодирования                   : VirtualDubMod build 2550/release

Видео
Идентификатор                            : 0
Формат                                   : MPEG-4 Visual
Профиль формата                          : Advanced Simple@L5
Настройки формата                        : BVOP1 / Custom Matrix
Параметр BVOP формата                    : 1
Параметр QPel формата                    : Нет
Параметр GMC формата                     : Без точки перехода
Параметр матрицы формата                 : Выборочная
Идентификатор кодека                     : XVID
Идентификатор кодека/Подсказка           : XviD
Продолжительность                        : 35 м. 36 с.
Битрейт                                  : 1499 Кбит/сек
Ширина                                   : 720 пикселей
Высота                                   : 400 пикселей
Соотношение сторон                       : 16:9
Частота кадров                           : 23,976 (24000/1001) кадра/сек
Частота кадров в оригинале               : 23,976 (23976/1000) кадра/сек
Цветовое пространство                    : YUV
Субдискретизация насыщенности            : 4:2:0
Битовая глубина                          : 8 бит
Тип развёртки                            : Прогрессивная
Метод сжатия                             : С потерями
Бит/(Пиксели*Кадры)                      : 0.217
Размер потока                            : 382 Мбайт (85%)
Библиотека кодирования                   : XviD 73

Аудио #1
Идентификатор                            : 1
Формат                                   : MPEG Audio
Версия формата                           : Version 1
Профиль формата                          : Layer 3
Настройки формата                        : Joint stereo / MS Stereo
Идентификатор кодека                     : 55
Идентификатор кодека/Подсказка           : MP3
Продолжительность                        : 35 м. 36 с.
Вид битрейта                             : Постоянный
Битрейт                                  : 128 Кбит/сек
Каналы                                   : 2 канала
Частота                                  : 48,0 КГц
Метод сжатия                             : С потерями
Размер потока                            : 32,6 Мбайт (7%)
Выравнивание                             : Соединение по промежуткам
Продолжительность промежутка             : 42  мс. (1,00 видеокадр)
Время предзагрузки промежутка            : 504  мс.

Аудио #2
Идентификатор                            : 2
Формат                                   : MPEG Audio
Версия формата                           : Version 1
Профиль формата                          : Layer 3
Настройки формата                        : Joint stereo / MS Stereo
Идентификатор кодека                     : 55
Идентификатор кодека/Подсказка           : MP3
Продолжительность                        : 35 м. 36 с.
Вид битрейта                             : Постоянный
Битрейт                                  : 128 Кбит/сек
Каналы                                   : 2 канала
Частота                                  : 48,0 КГц
Метод сжатия                             : С потерями
Размер потока                            : 32,6 Мбайт (7%)
Выравнивание                             : Соединение по промежуткам
Продолжительность промежутка             : 42  мс. (1,00 видеокадр)
Время предзагрузки промежутка            : 504  мс.
скриншот  скриншот  скриншот  скриншот  
pb.wtf



Скачать Американский вандал через торрент http://img11.lostpic.net/2018/08/19/71362d6ea0e0257a710970b167cfc63e.jpg Скачать фильм Американский вандал через торрент бесплантно в хорошем качестве Описание: Вся школа в шоке: кто-то нарисовал гигантские члены на 27 автомобилях на местной парковке. Главный подозреваемый — местный ... 10 10 5
Торрент: Зарегистрирован [2018-08-21 12:23] · скачан: 45 раз
Статус: √ проверено
Размер: 3.47 GB
Как cкачать? Как скачать Американский вандал через торрент | qTorrent

% Раздел Тема Автор DL S | L
Зарубежные сериалы [ 9.8 GB ] Американский вандал / American Vandal / Сезон: 2 / Серии: 1-8 из 8 [2018 WEB-DL 1080p] MVO [TVShows] bober100 Скачать
1 | 0
Зарубежные сериалы [ 3.18 GB ] Американский вандал / American Vandal / Сезон: 2 / Серии: 1-8 из 8 [2018 WEB-DLRip] MVO [Jaskier] bober100 Скачать
1 | 0
Зарубежные сериалы [ 5.64 GB ] Американский вандал / American Vandal / Сезон: 2 / Серии: 1-8 из 8 [2018 WEB-DL 720p] MVO [Jaskier] bober100 Скачать
1 | 0
Зарубежные сериалы [ 3.47 GB ] Американский вандал / American Vandal / Сезон: 1 / Серии: 1-8 из 8 [2017 WEB-DLRip] MVO [Jaskier] bober100 Скачать
1 | 0
Зарубежные сериалы [ 6.32 GB ] Американский вандал / American Vandal / Сезон: 1 / Серии: 1-8 из 8 [2017 WEB-DL 720p] MVO [Jaskier] bober100 Скачать
1 | 0
Зарубежные сериалы [ 13.64 GB ] Американский вандал / American Vandal 2 / Сезон: / Серии: 1-8 из 8 [2018 WEBRip 1080p] MVO [IdeaFilm] bober100 Скачать
1 | 0
Зарубежные сериалы [ 6.32 GB ] Американский вандал / American Vandal / Сезон: 1 / Серии: 1-8 из 8 [2017 . WEBRip 720p] MVO [Good People] bober100 Скачать
1 | 0

28-11-2019 20:33  

Отключить всю рекламу на сайте

    Дорогой пользователь! Огромная просьба, поблагодарите релизера, оцените раздачу и оставьте свои комментарий, если Вы скачали Американский вандал через торрент бесплатно! Внесите свою лепту в развитие PiratBit!
    Комментировать посты могут только пользователи прошедшие не сложную регистрацию
    Показать сообщения:    

    Американский вандал через торрент
    Скачать бесплатно Американский вандал
    Американский вандал скачать торрент
    Американский вандал смотреть онлайн
    Cкачать фильм Американский вандал бесплатно
    Американский вандал скачать торрент в хорошем качестве
    Американский вандал смотреть онлайн бесплатно в хорошем качестве


    Вы не можете начинать темы
    Вы не можете отвечать на сообщения
    Вы не можете редактировать свои сообщения
    Вы не можете удалять свои сообщения
    Вы не можете голосовать в опросах
    Вы не можете прикреплять файлы к сообщениям
    Вы можете скачивать файлы