Ссылка на приватное зеркало нашего сайта всего за 1$. Внимание количество ограничено!!!

2 сезон

iTunes

1 сезон

1

2 сезон

2 сезон

iTunes

1 сезон

RePack

30

Ultimate

ВАЖНО

ИГРА 18+

pack

RePack

MK11
pack

Забери бонус

RePack

jed

!!Акция!!

Alien_Rage

RePack

fifa19

RePack

Assassins Creed: Odyssey

RePack

NEED FOR SPEED™ PAYBACK

4 сезон

9 сезон

Бесстыжие 9 сезон

Все сериалы

все сериалы на PB.wtf

RePack

FAR CRY 5
  

Прибор / The Package (Джейк Зиманский) [2018, комедия, WEB-DL 720p] MVO [HDRezka Studio] pb.wtf

Прибор через торрент pb.wtf

Размер: 2.1 GB | Добавлен: 2 года 3 мес. назад | Торрент скачан:76 раз
Скачать  

21-08-2018 17:02 Прибор Скачать торрент  

Прибор / The Package
Год выпуска: 2018
Страна: США
Жанр: комедия
Продолжительность: 01:34:42
Перевод: Профессиональный (многоголосый) | HDRezka Studio
Субтитры: Английские (SDH)

Режиссер: Джейк Зиманский

rating

В ролях:

Джеральдин Висванатхан, Шугар Лин Бирд, Александр Кэлверт, Сэди Кальвано, Дэниэл Доэни, Кристиан Конвери, Вина Суд, Эдуардо Франко, Люк Спенсер Робертс, Чэнс Хурстфилд

Описание:

Четверо друзей наслаждаются отдыхом на свежем воздухе. Но неприятный инцидент заставляет компанию броситься на перегонки со временем в сторону цивилизации. Все для того, чтобы спасти самое главное в жизни любого парня.

Качество: WEB-DL 720p
Формат: MKV

Видео: 1280x720 (16:9), 23,976 fps, x264 ~3 915 kbps avg, 0.118 bit/pixel
Аудио#1: 48 kHz, AC3 Dolby Digital, 2 (L,R) ch, ~192.00 kbps avg | RUS (HDRezka Studio)
Аудио#2: 48 kHz, AC3 Dolby Digital Plus, 3/2 (L,C,R,l,r) + LFE ch, ~384.00 kbps avg | ENG
скриншот  скриншот  скриншот  скриншот  скриншот  

Общее
Уникальный идентификатор : 52470485397333872754883181532454218649 (0x277972A9BA11539A3F4B580374A66B99)
Полное имя : F:\OlLanDGroup\The.Package.2018.WEB-DL(720p).OlLanDGroup.mkv
Формат : Matroska
Версия формата : Version 4 / Version 2
Размер файла : 2,10 Гбайт
Продолжительность : 1 ч. 34 м.
Режим общего битрейта : Переменный
Общий поток : 3173 Кбит/сек
Название фильма : The.Package.2018 #TorpedoUK#
Дата кодирования : UTC 2018-08-21 15:28:57 / UTC 2018-07-30 14:05:41
Программа кодирования : mkvmerge v25.0.0 ('Prog Noir') 64-bit
Библиотека кодирования : libebml v1.3.6 + libmatroska v1.4.9 / Lavf58.0.0

Видео
Идентификатор : 1
Формат : AVC
Формат/Информация : Advanced Video Codec
Профиль формата : Main@L3.1
Параметр CABAC формата : Да
Параметр ReFrames формата : 3 кадра
Идентификатор кодека : V_MPEG4/ISO/AVC
Продолжительность : 1 ч. 34 м.
Вид битрейта : Переменный
Битрейт : 2610 Кбит/сек
Максимальный битрейт : 3915 Кбит/сек
Ширина : 1280 пикселей
Высота : 720 пикселей
Соотношение сторон : 16:9
Режим частоты кадров : Постоянный
Частота кадров : 23,976 (24000/1001) кадра/сек
Цветовое пространство : YUV
Субдискретизация насыщенности : 4:2:0
Битовая глубина : 8 бит
Тип развёртки : Прогрессивная
Бит/(Пиксели*Кадры) : 0.118
Размер потока : 1,68 Гбайт (80%)
Библиотека кодирования : x264 core 148 r2715 7e75228
Настройки программы : cabac=1 / ref=3 / deblock=1:0:0 / analyse=0x1:0x111 / me=umh / subme=10 / psy=1 / psy_rd=1.00:0.00 / mixed_ref=1 / me_range=24 / chroma_me=1 / trellis=2 / 8x8dct=0 / cqm=0 / deadzone=21,11 / fast_pskip=1 / chroma_qp_offset=-2 / threads=6 / lookahead_threads=1 / sliced_threads=0 / nr=0 / decimate=1 / interlaced=0 / bluray_compat=0 / stitchable=1 / constrained_intra=0 / bframes=2 / b_pyramid=0 / b_adapt=2 / b_bias=0 / direct=3 / weightb=1 / open_gop=0 / weightp=2 / keyint=48 / keyint_min=25 / scenecut=0 / intra_refresh=0 / rc_lookahead=48 / rc=2pass / mbtree=1 / bitrate=2610 / ratetol=1.0 / qcomp=0.50 / qpmin=6 / qpmax=51 / qpstep=4 / cplxblur=20.0 / qblur=0.5 / vbv_maxrate=3915 / vbv_bufsize=5220 / nal_hrd=vbr / filler=0 / ip_ratio=1.40 / aq=1:1.00
Default : Да
Forced : Нет
Statistics Tags Issue : mkvmerge v25.0.0 ('Prog Noir') 64-bit 2018-08-21 15:28:57 / mkvmerge v25.0.0 ('Prog Noir') 64-bit 2018-08-21 15:28:57 / UTC 2018-07-30 14:05:41
FromStats_BitRate : 2595340
FromStats_Duration : 01:34:42.052000000
FromStats_FrameCount : 136233
FromStats_StreamSize : 1843357404

Аудио #1
Идентификатор : 2
Формат : AC-3
Формат/Информация : Audio Coding 3
Расширение режима : CM (complete main)
Параметр Endianness формата : Big
Идентификатор кодека : A_AC3
Продолжительность : 1 ч. 34 м.
Вид битрейта : Постоянный
Битрейт : 192 Кбит/сек
Каналы : 2 канала
Расположение каналов : Front: L R
Частота : 48,0 КГц
Частота кадров : 31,250 кадров/сек (1536 spf)
Битовая глубина : 16 бит
Метод сжатия : С потерями
Размер потока : 130 Мбайт (6%)
Заголовок : MVO [HDRezka Studio]
Язык : Russian
Default : Да
Forced : Нет
Statistics Tags Issue : mkvmerge v25.0.0 ('Prog Noir') 64-bit 2018-08-21 15:28:57 / mkvmerge v25.0.0 ('Prog Noir') 64-bit 2018-08-21 15:28:57 / UTC 2018-07-30 14:05:41
FromStats_BitRate : 192000
FromStats_Duration : 01:34:42.528000000
FromStats_FrameCount : 177579
FromStats_StreamSize : 136380672

Аудио #2
Идентификатор : 3
Формат : AC-3
Формат/Информация : Audio Coding 3
Расширение режима : CM (complete main)
Параметр Endianness формата : Big
Идентификатор кодека : A_AC3
Продолжительность : 1 ч. 34 м.
Вид битрейта : Постоянный
Битрейт : 384 Кбит/сек
Каналы : 6 каналов
Расположение каналов : Front: L C R, Side: L R, LFE
Частота : 48,0 КГц
Частота кадров : 31,250 кадров/сек (1536 spf)
Битовая глубина : 16 бит
Метод сжатия : С потерями
Размер потока : 260 Мбайт (12%)
Заголовок : Original
Язык : English
Default : Нет
Forced : Нет
Дата кодирования : UTC 2018-07-30 14:05:41
HANDLER_NAME : Audio Media Handler
Statistics Tags Issue : mkvmerge v25.0.0 ('Prog Noir') 64-bit 2018-08-21 15:28:57 / mkvmerge v25.0.0 ('Prog Noir') 64-bit 2018-08-21 15:28:57 / UTC 2018-07-30 14:05:41
FromStats_BitRate : 384000
FromStats_Duration : 01:34:42.464000000
FromStats_FrameCount : 177577
FromStats_StreamSize : 272758272

Текст
Идентификатор : 4
Формат : UTF-8
Идентификатор кодека : S_TEXT/UTF8
Идентификатор кодека/Информация : UTF-8 Plain Text
Заголовок : SDH
Язык : English
Default : Нет
Forced : Нет
Statistics Tags Issue : mkvmerge v25.0.0 ('Prog Noir') 64-bit 2018-08-21 15:28:57 / mkvmerge v25.0.0 ('Prog Noir') 64-bit 2018-08-21 15:28:57 / UTC 2018-07-30 14:05:41
FromStats_BitRate : 101
FromStats_Duration : 01:29:51.970000000
FromStats_FrameCount : 1899
FromStats_StreamSize : 68403

pb.wtf



Скачать Прибор через торрент http://i100.fastpic.ru/big/2018/0821/64/65c135358064fc5f35e4a04b64c52964.jpg Скачать фильм Прибор через торрент бесплантно в хорошем качестве Описание: Четверо друзей наслаждаются отдыхом на свежем воздухе. Но неприятный инцидент заставляет компанию броситься на перегонки со ... 10 10 2
Торрент: Зарегистрирован [2018-08-21 17:02] · скачан: 76 раз
Статус: √ проверено
Размер: 2.1 GB
Как cкачать? Как скачать Прибор через торрент | qTorrent

% Раздел Тема Автор DL S | L
Фильмы 2018 [DVDrip, WEB-DLRip, HDrip] (DUB, MVO) [ 1.46 GB ] Прибор / The Package [2018 WEBRip] MVO [HDRezka Studio] bober100 Скачать
1 | 0
Фильмы (WEB-DL 720p, 1080p) [ 3.74 GB ] Прибор / The Package [2018 WEB-DL 1080p] MVO [HDRezka Studio] bober100 Скачать
2 | 0

28-11-2019 20:33  

Отключить всю рекламу на сайте

    Дорогой пользователь! Огромная просьба, поблагодарите релизера, оцените раздачу и оставьте свои комментарий, если Вы скачали Прибор через торрент бесплатно! Внесите свою лепту в развитие PiratBit!
    Комментировать посты могут только пользователи прошедшие не сложную регистрацию
    Показать сообщения:    

    Прибор через торрент
    Скачать бесплатно Прибор
    Прибор скачать торрент
    Прибор смотреть онлайн
    Cкачать фильм Прибор бесплатно
    Прибор скачать торрент в хорошем качестве
    Прибор смотреть онлайн бесплатно в хорошем качестве


    Вы не можете начинать темы
    Вы не можете отвечать на сообщения
    Вы не можете редактировать свои сообщения
    Вы не можете удалять свои сообщения
    Вы не можете голосовать в опросах
    Вы не можете прикреплять файлы к сообщениям
    Вы можете скачивать файлы