Ссылка на приватное зеркало нашего сайта всего за 1$. Внимание количество ограничено!!!

2 сезон

iTunes

1 сезон

1

2 сезон

2 сезон

iTunes

1 сезон

RePack

30

Ultimate

ВАЖНО

ИГРА 18+

pack

RePack

MK11
pack

Забери бонус

RePack

jed

!!Акция!!

Alien_Rage

RePack

fifa19

RePack

Assassins Creed: Odyssey

RePack

NEED FOR SPEED™ PAYBACK

4 сезон

9 сезон

Бесстыжие 9 сезон

Все сериалы

все сериалы на PB.wtf

RePack

FAR CRY 5
  

Ненасытная / Insatiable / Сезон: 1 / Серии: 1-12 из 12 (Эндрю Флеминг, Лев Л. Спиро, Брайан Дэннели) [2018, Драма, комедия, WEBRip] MVO [Jaskier] pb.wtf

Ненасытная через торрент pb.wtf

Размер: 6.46 GB | Добавлен: 2 года 3 мес. назад | Торрент скачан:109 раз
Скачать  

21-08-2018 17:18 Ненасытная Скачать торрент  

Ненасытная | Insatiable Год выпуска: 2018
Страна: США
Жанр: Драма, комедия
Продолжительность: ~ 00:45:00
Перевод: Профессиональный (многоголосый закадровый) | Jaskier
Субтитры: отсутствуют

Режиссёр: Эндрю Флеминг, Лев Л. Спиро, Брайан Дэннели

В ролях:

Даллас Робертс, Дебби Райан, Кристофер Горам, Кимми Шилдс, Дэниэл Кан, Эринн Уэстбрук, Майкл Провост, Ирен Чои, Алисса Милано, Джеймс Ластович и др.

Описание:

Новая клиентка адвоката Боба, Пэтти — девушка с трудным прошлым, подвергавшаяся в школе издевательствам из-за своей внешности. Похудев, Пэтти намерена отомстить своим обидчикам.



Качество: WEBRip
Формат: AVI

Видео: XviD, ~ 1400 kbps, 720x400, 23.976 fps
Аудио 1: MP3, 48,0 КГц, 2 ch, 128 kbps - RUS
Аудио 2: MP3, 48,0 КГц, 2 ch, 128 kbps - ENG


Реклама: Присутствует звуковая (два раза в начале и конце по 12 сек.)
Переведено и озвучено: студией Jaskier
Общее
Полное имя                               : D:\Яскъер\Insatiable. Season 1 (WEBRip l 400p l Jaskier)\Insatiable.S01E05.WEBRip.Rus.Eng.Jaskier.avi
Формат                                   : AVI
Формат/Информация                        : Audio Video Interleave
Размер файла                             : 601 Мбайт
Продолжительность                        : 53 м. 21 с.
Общий поток                              : 1576 Кбит/сек
Программа кодирования                    : VirtualDubMod 1.5.10.3 | www.virtualdub-fr.org || (build 2550/release)
Библиотека кодирования                   : VirtualDubMod build 2550/release

Видео
Идентификатор                            : 0
Формат                                   : MPEG-4 Visual
Профиль формата                          : Advanced Simple@L5
Настройки формата                        : BVOP1 / Custom Matrix
Параметр BVOP формата                    : 1
Параметр QPel формата                    : Нет
Параметр GMC формата                     : Без точки перехода
Параметр матрицы формата                 : Выборочная
Идентификатор кодека                     : XVID
Идентификатор кодека/Подсказка           : XviD
Продолжительность                        : 53 м. 21 с.
Битрейт                                  : 1306 Кбит/сек
Ширина                                   : 720 пикселей
Высота                                   : 400 пикселей
Соотношение сторон                       : 16:9
Частота кадров                           : 23,976 (24000/1001) кадра/сек
Частота кадров в оригинале               : 23,976 (23976/1000) кадра/сек
Цветовое пространство                    : YUV
Субдискретизация насыщенности            : 4:2:0
Битовая глубина                          : 8 бит
Тип развёртки                            : Прогрессивная
Метод сжатия                             : С потерями
Бит/(Пиксели*Кадры)                      : 0.189
Размер потока                            : 498 Мбайт (83%)
Библиотека кодирования                   : XviD 73

Аудио #1
Идентификатор                            : 1
Формат                                   : MPEG Audio
Версия формата                           : Version 1
Профиль формата                          : Layer 3
Настройки формата                        : Joint stereo / MS Stereo
Идентификатор кодека                     : 55
Идентификатор кодека/Подсказка           : MP3
Продолжительность                        : 53 м. 21 с.
Вид битрейта                             : Постоянный
Битрейт                                  : 128 Кбит/сек
Каналы                                   : 2 канала
Частота                                  : 48,0 КГц
Метод сжатия                             : С потерями
Размер потока                            : 48,9 Мбайт (8%)
Выравнивание                             : Соединение по промежуткам
Продолжительность промежутка             : 42  мс. (1,00 видеокадр)
Время предзагрузки промежутка            : 504  мс.

Аудио #2
Идентификатор                            : 2
Формат                                   : MPEG Audio
Версия формата                           : Version 1
Профиль формата                          : Layer 3
Настройки формата                        : Joint stereo / MS Stereo
Идентификатор кодека                     : 55
Идентификатор кодека/Подсказка           : MP3
Продолжительность                        : 53 м. 21 с.
Вид битрейта                             : Постоянный
Битрейт                                  : 128 Кбит/сек
Каналы                                   : 2 канала
Частота                                  : 48,0 КГц
Метод сжатия                             : С потерями
Размер потока                            : 48,9 Мбайт (8%)
Выравнивание                             : Соединение по промежуткам
Продолжительность промежутка             : 42  мс. (1,00 видеокадр)
Время предзагрузки промежутка            : 504  мс.
скриншот  скриншот  скриншот  
pb.wtf



Скачать Ненасытная через торрент http://img11.lostpic.net/2018/08/18/15e85164b806396caa95ca14b8c9776c.png Скачать фильм Ненасытная через торрент бесплантно в хорошем качестве Описание: Новая клиентка адвоката Боба, Пэтти — девушка с трудным прошлым, подвергавшаяся в школе издевательствам из-за своей внешности. ... 10 10 3
Торрент: Зарегистрирован [2018-08-21 17:18] · скачан: 109 раз
Статус: √ проверено
Размер: 6.46 GB
Как cкачать? Как скачать Ненасытная через торрент | qTorrent

% Раздел Тема Автор DL S | L
Зарубежные сериалы [ 19.21 GB ] Ненасытная / Insatiable / Сезон: 1 / Серии: 1-12 из 12 [2018 WEBRip 1080p] DUB [Невафильм / Netflix] bober100 Скачать
1 | 0
Зарубежные сериалы [ 17.31 GB ] Ненасытная / Insatiable / Сезон: 1 / Серии: 1-12 из 12 [2018 WEBRip 1080p] MVO [Jaskier] bober100 Скачать
1 | 0

28-11-2019 20:33  

Отключить всю рекламу на сайте

    Дорогой пользователь! Огромная просьба, поблагодарите релизера, оцените раздачу и оставьте свои комментарий, если Вы скачали Ненасытная через торрент бесплатно! Внесите свою лепту в развитие PiratBit!
    Комментировать посты могут только пользователи прошедшие не сложную регистрацию
    Показать сообщения:    

    Ненасытная через торрент
    Скачать бесплатно Ненасытная
    Ненасытная скачать торрент
    Ненасытная смотреть онлайн
    Cкачать фильм Ненасытная бесплатно
    Ненасытная скачать торрент в хорошем качестве
    Ненасытная смотреть онлайн бесплатно в хорошем качестве


    Вы не можете начинать темы
    Вы не можете отвечать на сообщения
    Вы не можете редактировать свои сообщения
    Вы не можете удалять свои сообщения
    Вы не можете голосовать в опросах
    Вы не можете прикреплять файлы к сообщениям
    Вы можете скачивать файлы