Ссылка на приватное зеркало всего за 1$. Внимание количество ограничено!!!

OK

1+1

iTunes

мы

OK

1

WEB-DLRip

Джокер

Пифагор

Ведьмак / The Witcher сериал

iTunes

ПШазам

ОК

Оно 2

iTunes

30
pack

Вам бонус

ВАЖНО

!!Акция!!

Alien_RageХит недели

RePack

Resident Evil 21

ИГРА 18+

pack

RePack

jed

RePack

fifa19

RePack

Assassins Creed: Odyssey

RePack

NEED FOR SPEED™ PAYBACK

4 сезон

9 сезон

Бесстыжие 9 сезон

Все сериалы

все сериалы на PB.wtf

RePack

FAR CRY 5
  

Саммит / La Cordillera (Сантьяго Митре) [2017 г., Триллер, драма, детектив, HDRip, Любительский (многоголосый) GreenРай Studio] pb.wtf

Саммит через торрент pb.wtf

Размер: 1.36 GB | Добавлен: 1 год 5 мес. назад | Торрент скачан:20 раз
Скачать  

21-08-2018 21:09 Саммит Скачать торрент  

Саммит / La Cordillera
Год выпуска: 2017
Страна: Аргентина, Франция, Испания
Жанр: Триллер, драма, детектив
Продолжительность: 01:54:31
Перевод: Любительский (многоголосый) GreenРай Studio
Субтитры: Нет

Режиссер: Сантьяго Митре

rating

В ролях: Рикардо Дарин, Долорес Фонци, Эрика Ривас, Хосе Мария Маркос, Кристиан Слэйтер, Паулина Гарсиа

Описание: В Чили проходит саммит президентов стран Латинской Америки, на котором обсуждаются геополитические стратегии и альянсы. Между тем аргентинский президент Эрнан Бланко переживает политическую и семейную драму и пытается бороться с внутренними демонами. Ему придётся принять решения, одно из которых повлияет на его и без того непростые отношения с дочерью, а другое станет самым важным в его политической карьере.

Доп. информация: Присутствует реклама!

Качество: HDRip
Формат: AVI
Видео кодек: XviD
Аудио кодек: AC3
Видео: XviD, 1502 Кбит/с, 720x304
Аудио#1: Русский, AC3, 2 ch, 192 Кбит/с
скриншот   скриншот   скриншот   скриншот   скриншот   скриншот  

Видео
Идентификатор : 0
Формат : MPEG-4 Visual
Профиль формата : Advanced Simple@L5
Настройки формата : BVOP2
Параметр BVOP формата : 2
Параметр QPel формата : Нет
Параметр GMC формата : Без точки перехода
Параметр матрицы формата : Default (MPEG)
Идентификатор кодека : XVID
Идентификатор кодека/Подсказка : XviD
Продолжительность : 1 ч. 54 м.
Битрейт : 1502 Кбит/сек
Ширина : 720 пикселей
Высота : 304 пикселя
Соотношение сторон : 2,35:1
Частота кадров : 23,976 (24000/1001) кадра/сек
Цветовое пространство : YUV
Субдискретизация насыщенности : 4:2:0
Битовая глубина : 8 бит
Тип развёртки : Прогрессивная
Метод сжатия : С потерями
Бит/(Пиксели*Кадры) : 0.286
Размер потока : 1,20 Гбайт (88%)
Библиотека кодирования : XviD 1.2.1 (UTC 2008-12-04)

Аудио
Идентификатор : 1
Формат : AC-3
Формат/Информация : Audio Coding 3
Идентификатор кодека : 2000
Продолжительность : 1 ч. 54 м.
Вид битрейта : Постоянный
Битрейт : 192 Кбит/сек
Каналы : 2 канала
Расположение каналов : Front: L R
Частота : 48,0 КГц
Частота кадров : 31,250 кадров/сек (1536 SPF)
Битовая глубина : 16 бит
Метод сжатия : С потерями
Размер потока : 157 Мбайт (11%)
Выравнивание : Разделение по промежуткам
Продолжительность промежутка : 42 мс. (1,00 видеокадр)
Время предзагрузки промежутка : 500 мс.
ServiceKind/String : Complete Main

Семпл: http://rgho.st/private/7HGZRnyVD/49aaca74c26b5083ab877fe2ac63cbf2pb.wtf



Скачать Саммит через торрент http://pic1.kartinco.top/images/11/ia2nv.jpg Скачать фильм Саммит через торрент бесплантно в хорошем качестве Описание: В Чили проходит саммит президентов стран Латинской Америки, на котором обсуждаются геополитические стратегии и альянсы. Между тем ... 9.5 10 2
Торрент: Зарегистрирован [2018-08-21 21:09] · скачан: 20 раз
Статус: T временная
Размер: 1.36 GB
Как cкачать? Как скачать Саммит через торрент | qTorrent



Последний раз редактировалось: Леонид Ильич (2018-08-22 20:30), всего редактировалось 1 раз

28-11-2019 20:33  

Отключить всю рекламу на сайте

22-08-2018 09:08 Саммит Скачать торрент  

22-08-2018 20:31 Саммит Скачать торрент  

-Lexx-, загрузилpb.wtf



23-08-2018 05:06 Саммит Скачать торрент  

    Дорогой пользователь! Огромная просьба, поблагодарите релизера, оцените раздачу и оставьте свои комментарий, если Вы скачали Саммит через торрент бесплатно! Внесите свою лепту в развитие PiratBit!
    Комментировать посты могут только пользователи прошедшие не сложную регистрацию
    Показать сообщения:    

    Саммит через торрент
    Скачать бесплатно Саммит
    Саммит скачать торрент
    Саммит смотреть онлайн
    Cкачать фильм Саммит бесплатно
    Саммит скачать торрент в хорошем качестве
    Саммит смотреть онлайн бесплатно в хорошем качестве


    Вы не можете начинать темы
    Вы не можете отвечать на сообщения
    Вы не можете редактировать свои сообщения
    Вы не можете удалять свои сообщения
    Вы не можете голосовать в опросах
    Вы не можете прикреплять файлы к сообщениям
    Вы можете скачивать файлы