Ссылка на приватное зеркало нашего сайта всего за 1$. Внимание количество ограничено!!!

2 сезон

iTunes

1 сезон

1

iTunes

iTunes

iTunes

1 сезон

RePack

30

ИГРА 18+

pack

ВАЖНО

!!Акция!!

Alien_RageХит недели

RePack

MK11
pack

Забери бонус

RePack

jed

!!Акция!!

Alien_Rage

RePack

fifa19

RePack

Assassins Creed: Odyssey

RePack

NEED FOR SPEED™ PAYBACK

4 сезон

9 сезон

Бесстыжие 9 сезон

Все сериалы

все сериалы на PB.wtf

RePack

FAR CRY 5
  

Грозовые ворота / Серии: 1-4 из 4 ( Андрей Малюков) [2006, боевик, военный фильм, WEBRip-AVC] - ExKinoRay pb.wtf

Грозовые ворота через торрент pb.wtf

Размер: 4.55 GB | Добавлен: 2 года 2 мес. назад | Торрент скачан:143 раза
Скачать  

22-08-2018 01:31 Грозовые ворота Скачать торрент  

Информация о фильме
Название: Грозовые ворота
Год выхода: 2005
Жанр: Драма, военный
Режиссер: Андрей Малюков
В ролях: Михаил Пореченков, Вячеслав Разбегаев, Анатолий Пашинин, Андрей Краско, Иван Жидков, Евгений Потапенко, Михаил Ефремов, Даниил Страхов, Елизавета Боярская, Марина Могилевская

Описание: Рота старшего лейтенанта Александра Доронина откомандирована на Северный Кавказ. Командир полка полковник Галкин поручает Доронину оборону перевала «Грозовые ворота». К роте Доронина прикомандировывают группу спецназа ГРУ под командованием майора Егорова, у которого несколько лет назад от рук террористов погибли жена и сын. Вскоре по прибытии на перевал, Егоров знакомит Доронина со своим доверенным лицом Шахом, бывшим чеченским генералом. У Шаха имеется достоверная информация, что к перевалу стягиваются крупные силы боевиков. Они готовятся нанести роте сокрушительный удар…

rating

Страна: Россия
Студия: Вертикаль
Продолжительность: 4 х ~ 00:50:00

Файл
Кодек: х264
Качество: WEBRip-AVC
Видео: MPEG-4 AVC, 1024x576, 25,000 fps, ~ 3000 kbps
Аудио: AC3, 2 ch, 192 Кбит/сек, CBR, 48,0 КГц
Субтитры: Русские
Навигация по главам: Есть
General
Unique ID : 176123320505581937418098030143646330985 (0x84801E20B6887CA183252D8AA739F069)
Complete name : D:\Grozovie.vorota.2006.AVC.ExKinoRay\Grozovie.vorota.01.2006.AVC.ExKinoRay.mkv
Format : Matroska
Format version : Version 2
File size : 1.21 GiB
Duration : 52 min
Overall bit rate : 3 303 kb/s
Movie name : Грозовые ворота 2006 from ExKinoRay
Encoded date : UTC 2018-08-21 20:08:50
Writing application : mkvmerge v5.6.0 ('Kenya Kane') built on May 27 2012 16:44:04
Writing library : libebml v1.2.3 + libmatroska v1.3.0

Video
ID : 1
Format : AVC
Format/Info : Advanced Video Codec
Format profile : High@L4.1
Format settings, CABAC : Yes
Format settings, ReFrames : 11 frames
Codec ID : V_MPEG4/ISO/AVC
Duration : 52 min
Bit rate : 3 012 kb/s
Width : 1 024 pixels
Height : 576 pixels
Display aspect ratio : 16:9
Frame rate mode : Constant
Frame rate : 25.000 FPS
Color space : YUV
Chroma subsampling : 4:2:0
Bit depth : 8 bits
Scan type : Progressive
Bits/(Pixel*Frame) : 0.204
Stream size : 1.12 GiB (92%)
Title : Enigma
Writing library : x264 core 152 r2851 ba24899
Encoding settings : cabac=1 / ref=11 / deblock=1:-2:-2 / analyse=0x3:0x113 / me=umh / subme=10 / psy=1 / psy_rd=1.02:0.10 / mixed_ref=1 / me_range=32 / chroma_me=1 / trellis=2 / 8x8dct=1 / cqm=0 / deadzone=21,11 / fast_pskip=0 / chroma_qp_offset=-3 / threads=12 / lookahead_threads=2 / sliced_threads=0 / nr=0 / decimate=0 / interlaced=0 / bluray_compat=0 / constrained_intra=0 / bframes=9 / b_pyramid=2 / b_adapt=2 / b_bias=0 / direct=3 / weightb=1 / open_gop=0 / weightp=2 / keyint=250 / keyint_min=25 / scenecut=40 / intra_refresh=0 / rc=2pass / mbtree=0 / bitrate=3012 / ratetol=1.0 / qcomp=0.60 / qpmin=0 / qpmax=51 / qpstep=4 / cplxblur=20.0 / qblur=0.5 / ip_ratio=1.30 / pb_ratio=1.20 / aq=2:0.90
Language : English
Default : Yes
Forced : No
Color range : Limited
Color primaries : BT.709
Transfer characteristics : BT.709
Matrix coefficients : BT.709

Audio
ID : 2
Format : AC-3
Format/Info : Audio Coding 3
Mode extension : CM (complete main)
Format settings, Endianness : Big
Codec ID : A_AC3
Duration : 52 min
Bit rate mode : Constant
Bit rate : 192 kb/s
Channel(s) : 2 channels
Channel positions : Front: L R
Sampling rate : 48.0 kHz
Frame rate : 31.250 FPS (1536 spf)
Compression mode : Lossy
Stream size : 72.0 MiB (6%)
Language : Russian
Default : Yes
Forced : No

Text
ID : 3
Format : UTF-8
Codec ID : S_TEXT/UTF8
Codec ID/Info : UTF-8 Plain Text
Language : Russian
Default : No
Forced : No

Menu
00:00:00.000 : en:Chapter 1
00:08:58.840 : en:Chapter 2
00:16:29.560 : en:Chapter 3
00:23:55.840 : en:Chapter 4
00:29:22.480 : en:Chapter 5
00:41:35.080 : en:Chapter 6
00:52:26.000 : en:Chapter 7
Релиз от:

Автор релиза: pb.wtf



Скачать Грозовые ворота через торрент http://s009.radikal.ru/i309/1511/78/2eb0cc5dc265.png Скачать фильм Грозовые ворота через торрент бесплантно в хорошем качестве Описание: Рота старшего лейтенанта Александра Доронина откомандирована на Северный Кавказ. Командир полка полковник Галкин поручает ... 7.3 10 8
Info! Золотая раздача, скачанное не засчитывается.
Торрент: Зарегистрирован [2018-08-22 01:31] · скачан: 143 раз
Статус: √ проверено
Размер: 4.55 GB
Как cкачать? Как скачать Грозовые ворота через торрент | qTorrent

28-11-2019 20:33  

Отключить всю рекламу на сайте

    Дорогой пользователь! Огромная просьба, поблагодарите релизера, оцените раздачу и оставьте свои комментарий, если Вы скачали Грозовые ворота через торрент бесплатно! Внесите свою лепту в развитие PiratBit!
    Комментировать посты могут только пользователи прошедшие не сложную регистрацию
    Показать сообщения:    

    Грозовые ворота через торрент
    Скачать бесплатно Грозовые ворота
    Грозовые ворота скачать торрент
    Грозовые ворота смотреть онлайн
    Cкачать фильм Грозовые ворота бесплатно
    Грозовые ворота скачать торрент в хорошем качестве
    Грозовые ворота смотреть онлайн бесплатно в хорошем качестве


    Вы не можете начинать темы
    Вы не можете отвечать на сообщения
    Вы не можете редактировать свои сообщения
    Вы не можете удалять свои сообщения
    Вы не можете голосовать в опросах
    Вы не можете прикреплять файлы к сообщениям
    Вы можете скачивать файлы