Всегда рабочее зеркало без VPN и Proxy просто перед .vidak.icu напиши любое слово или цифру, Пример http://e86c.vidak.icu

MVO

2 сезон

2 сезон

1

1 сезон

iTunes

2 сезон

13

1 сезон

Deluxe

pack

Рекомендуем

Пиратка

30

ВАЖНО

RePack

MK11

RePack

jed

RePack

fifa19

RePack

RDR2

RePack

NEED FOR SPEED™ PAYBACK

Кинопоиск HD

6 сезон

 Острые козырьки 6 сезон

Все сериалы

все сериалы на PB.wtf

RePack

FAR CRY 5

Anonymous, нам критически не хватает 5601 руб. на оплату серверов и переферии за Апрель, помоги нам пожалуйста, вся надежда только на тебя. В благодарность мы отключим тебе всю рекламу на сайте!

×
  
Magnet ссылка

Маньяк-полицейский / Maniac Cop (Уильям Лустиг) [1988, ужасы, боевик, криминал, детектив, BDRip 1080p by msltel] 2 x AVO, VO pb.wtf

Маньяк-полицейский через торрент pb.wtf

Размер: 14.89 GB | Добавлен: 3 года 8 мес. назад | Торрент скачан:4 раза
Смотреть онлайн Маньяк-полицейский | Скачать    Ребята, помогите собрать деньги на оплату серверов!!!

22-08-2018 06:03 Маньяк-полицейский Скачать торрент  

Название: Маньяк-полицейский
Оригинальное название: Maniac Cop
Год выпуска: 1988
Страна: США
Жанр: ужасы, боевик, криминал, детектив
Продолжительность: 01:25:00
Перевод: авторский, закадровый одноголосый

Режиссер: Уильям Лустиг
В ролях: Том Эткинс, Брюс Кэмпбелл, Лаурен Лэндон, Ричард Раундтри, Уильям Смит, Роберт З'Дар, Шири Норт, Нина Арвесен, Ник Барбаро, Лу Бонаки

О фильме: Нью-Йорк в ужасе! В городе серия жестоких убийств. Все свидетели утверждают, что их совершил некто в форме полицейского. Управление полиции поначалу не верит в это, и только лейтенант Френк МакКрей понимает, о ком идёт речь...



Качество: BDRip 1080p
Формат: MKV
Видео: MPEG-4 AVC, 21.7 Mбит/с, 1920x1040
Аудио 1: русский, AC3, 192 kbps, 2 ch, 48 kHz [авторский, Леонид Володарский]
Аудио 2: русский, DTS, 1509 kbps, 7/6 ch, 48 kHz [авторский, Алексей Михалёв]
Аудио 3: русский, AC3, 192 kbps, 2 ch, 48 kHz [закадровый одноголосый, Лёша Прапорщик]
Аудио 4: английский, DTS, 1509 kbps, 7/6 ch, 48 kHz [оригинал]
Субтитры: английские
Главы/чаптеры
Общее
Уникальный идентификатор : 246327443438369361139924518905538493960 (0xB950F0A02F63A54EA90C6EDB6CAD3E08)
Полное имя : D:\Video\Маньяк-полицейский.1988.BDRip.1080p by msltel.mkv
Формат : Matroska
Версия формата : Version 4 / Version 2
Размер файла : 14,9 Гбайт
Продолжительность : 1 ч. 25 м.
Общий поток : 25,0 Мбит/сек
Название фильма : Rip by msltel
Дата кодирования : UTC 2018-08-22 05:12:16
Программа кодирования : mkvmerge v8.2.0 ('World of Adventure') 64bit
Библиотека кодирования : libebml v1.3.1 + libmatroska v1.4.2

Видео
Идентификатор : 1
Формат : AVC
Формат/Информация : Advanced Video Codec
Профиль формата : High@L4.1
Настройки формата : CABAC / 4 Ref Frames
Параметр CABAC формата : Да
Параметр RefFrames формата : 4 кадра
Идентификатор кодека : V_MPEG4/ISO/AVC
Продолжительность : 1 ч. 25 м.
Битрейт : 21,7 Мбит/сек
Ширина : 1920 пикселей
Высота : 1040 пикселей
Соотношение сторон : 1,85:1
Режим частоты кадров : Постоянный
Частота кадров : 23,976 (24000/1001) кадра/сек
Цветовое пространство : YUV
Субдискретизация насыщенности : 4:2:0
Битовая глубина : 8 бит
Тип развёртки : Прогрессивная
Бит/(Пиксели*Кадры) : 0.452
Размер потока : 12,9 Гбайт (86%)
Библиотека кодирования : x264 core 155 r2901 7d0ff22
Настройки программы : cabac=1 / ref=4 / deblock=1:-3:-2 / analyse=0x3:0x113 / me=umh / subme=11 / psy=1 / psy_rd=1.00:0.15 / mixed_ref=1 / me_range=32 / chroma_me=1 / trellis=2 / 8x8dct=1 / cqm=0 / deadzone=21,11 / fast_pskip=0 / chroma_qp_offset=-3 / threads=6 / lookahead_threads=1 / sliced_threads=0 / nr=0 / decimate=1 / interlaced=0 / bluray_compat=0 / constrained_intra=0 / bframes=16 / b_pyramid=2 / b_adapt=2 / b_bias=0 / direct=1 / weightb=1 / open_gop=0 / weightp=2 / keyint=230 / keyint_min=23 / scenecut=40 / intra_refresh=0 / rc_lookahead=40 / rc=crf / mbtree=1 / crf=18.2 / qcomp=0.60 / qpmin=0 / qpmax=69 / qpstep=4 / vbv_maxrate=62500 / vbv_bufsize=78125 / crf_max=0.0 / nal_hrd=none / filler=0 / ip_ratio=1.40 / aq=1:1.00
Язык : English
Default : Да
Forced : Нет

Аудио #1
Идентификатор : 2
Формат : AC-3
Формат/Информация : Audio Coding 3
Идентификатор кодека : A_AC3
Продолжительность : 1 ч. 25 м.
Вид битрейта : Постоянный
Битрейт : 192 Кбит/сек
Каналы : 2 канала
Расположение каналов : Front: L R
Частота : 48,0 КГц
Частота кадров : 31,250 кадров/сек (1536 SPF)
Битовая глубина : 16 бит
Метод сжатия : С потерями
Размер потока : 117 Мбайт (1%)
Заголовок : Леонид Володарский
Язык : Russian
ServiceKind/String : Complete Main
Default : Да
Forced : Нет

Аудио #2
Идентификатор : 3
Формат : DTS
Формат/Информация : Digital Theater Systems
Профиль формата : ES Discrete / Core
Идентификатор кодека : A_DTS
Продолжительность : 1 ч. 25 м.
Вид битрейта : Постоянный
Битрейт : 1509 Кбит/сек
Каналы : 7 каналов / 6 каналов
Расположение каналов : Front: L C R, Side: L R, Back: C, LFE / Front: L C R, Side: L R, LFE
Частота : 48,0 КГц
Частота кадров : 93,750 кадра/сек (512 SPF)
Битовая глубина : 24 бит
Метод сжатия : С потерями
Размер потока : 919 Мбайт (6%)
Заголовок : Алексей Михалёв
Язык : Russian
Default : Нет
Forced : Нет

Аудио #3
Идентификатор : 4
Формат : AC-3
Формат/Информация : Audio Coding 3
Идентификатор кодека : A_AC3
Продолжительность : 1 ч. 25 м.
Вид битрейта : Постоянный
Битрейт : 192 Кбит/сек
Каналы : 2 канала
Расположение каналов : Front: L R
Частота : 48,0 КГц
Частота кадров : 31,250 кадров/сек (1536 SPF)
Битовая глубина : 16 бит
Метод сжатия : С потерями
Размер потока : 117 Мбайт (1%)
Заголовок : Леша Прапорщик
Язык : Russian
ServiceKind/String : Complete Main
Default : Нет
Forced : Нет

Аудио #4
Идентификатор : 5
Формат : DTS
Формат/Информация : Digital Theater Systems
Профиль формата : ES Discrete / Core
Идентификатор кодека : A_DTS
Продолжительность : 1 ч. 25 м.
Вид битрейта : Постоянный
Битрейт : 1509 Кбит/сек
Каналы : 7 каналов / 6 каналов
Расположение каналов : Front: L C R, Side: L R, Back: C, LFE / Front: L C R, Side: L R, LFE
Частота : 48,0 КГц
Частота кадров : 93,750 кадра/сек (512 SPF)
Битовая глубина : 24 бит
Метод сжатия : С потерями
Размер потока : 919 Мбайт (6%)
Заголовок : origibal
Язык : English
Default : Нет
Forced : Нет

Текст
Идентификатор : 6
Формат : UTF-8
Идентификатор кодека : S_TEXT/UTF8
Идентификатор кодека/Информация : UTF-8 Plain Text
Продолжительность : 1 ч. 19 м.
Битрейт : 49 бит/сек
ElementCount : 777
Размер потока : 28,9 Кбайт (0%)
Заголовок : английские
Язык : English
Default : Нет
Forced : Нет

Меню
00:00:00.000 : :Chapter 1
00:03:43.556 : :Chapter 2
00:08:55.033 : :Chapter 3
00:17:19.579 : :Chapter 4
00:19:30.126 : :Chapter 5
00:24:22.670 : :Chapter 6
00:29:41.445 : :Chapter 7
00:34:38.034 : :Chapter 8
00:39:44.882 : :Chapter 9
00:47:51.994 : :Chapter 10
00:49:43.771 : :Chapter 11
00:53:53.605 : :Chapter 12
00:59:40.117 : :Chapter 13
01:05:42.438 : :Chapter 14
01:09:36.421 : :Chapter 15
01:13:34.368 : :Chapter 16
01:17:28.100 : :Chapter 17
01:21:54.076 : :Chapter 18
pb.wtf



Скачать Маньяк-полицейский через торрент https://d.radikal.ru/d25/1808/5e/5343225430dd.png Скачать, смотреть онлайн Маньяк-полицейский бесплантно в хорошем качестве О фильме: Нью-Йорк в ужасе! В городе серия жестоких убийств. Все свидетели утверждают, что их совершил некто в форме полицейского. ... 10 10 1
Торрент: Зарегистрирован [2018-08-22 06:03] · скачан: 4 раз
Статус: √ проверено
Размер: 14.89 GB
Как cкачать? Как скачать Маньяк-полицейский через торрент | UTorrent

% Раздел Тема Автор DL S | L
Фильмы с авторской озвучкой [ 5.46 GB ] Маньяк-полицейский / Maniac Cop [1988 BDRip 720p by msltel] 2 x AVO VO msltel Скачать
1 | 0

28-11-2019 20:33  

Отключить всю рекламу на сайте

    Дорогой пользователь! Огромная просьба, поблагодарите релизера, оцените раздачу и оставьте свои комментарий, если Вы скачали Маньяк-полицейский через торрент бесплатно!
    Комментировать посты могут только пользователи прошедшие не сложную регистрацию
    Показать сообщения:    

    Маньяк-полицейский через торрент
    Скачать бесплатно Маньяк-полицейский
    Маньяк-полицейский скачать торрент
    Маньяк-полицейский смотреть онлайн
    Cкачать фильм Маньяк-полицейский бесплатно
    Маньяк-полицейский скачать торрент в хорошем качестве
    Маньяк-полицейский смотреть онлайн бесплатно в хорошем качестве


    Вы не можете начинать темы
    Вы не можете отвечать на сообщения
    Вы не можете редактировать свои сообщения
    Вы не можете удалять свои сообщения
    Вы не можете голосовать в опросах
    Вы не можете прикреплять файлы к сообщениям
    Вы можете скачивать файлы