Ссылка на приватное зеркало всего за 1$. Внимание количество ограничено!!!

OK

1+1

iTunes

мы

OK

1

WEB-DLRip

Джокер

Пифагор

Ведьмак / The Witcher сериал

Лицензия

ПШазам

ОК

Оно 2

iTunes

30
pack

Вам бонус

ВАЖНО

!!Акция!!

Alien_RageХит недели

RePack

Resident Evil 21

ИГРА 18+

pack

RePack

jed

!!Акция!!

Alien_Rage

RePack

fifa19

RePack

Assassins Creed: Odyssey

RePack

NEED FOR SPEED™ PAYBACK

4 сезон

9 сезон

Бесстыжие 9 сезон

Все сериалы

все сериалы на PB.wtf

RePack

FAR CRY 5
  

Убойная вечеринка (Кровавый душ) / Killer Party (The Shower) (Алекс Драммонд / Alex Drummond) [2014, ужасы, комедия, WEBRip-AVC] [VO] (datynet) pb.wtf

Убойная вечеринка через торрент pb.wtf

Размер: 1.4 GB | Добавлен: 1 год 4 мес. назад | Торрент скачан:102 раза
Скачать  

22-08-2018 12:59 Убойная вечеринка Скачать торрент  

Убойная вечеринка (Кровавый душ) / Killer Party (The Shower)

Страна: США
Жанр: ужасы, комедия
Год выпуска: 2014
Продолжительность: 01:18:03
Озвучание: Любительское (одноголосое закадровое) datynet по переводу: Куценко
Субтитры: нет

Режиссер: Алекс Драммонд / Alex Drummond

В ролях: Дрю Бенда, Стефани Беран, Джон Броди, Рэйчел Драммонд, Курт Ёла, Алекс Фатович, Ивэн Гэмбл, Энди Хофф, Адам Карелл, Катерина Микайленко, Лиз Лоза, Мередит Лерла, Одри МакКенна, Пол Натонек, Роб Нортон, Тони Раго, Нил Родригез, Сюзанн Сена, Кристин Слоун, Стефани Тоби.

Описание: Группа друзей попадают в ловушку на детской вечеринке, когда загадочная вспышка эпидемии начинает превращать людей в маньяков-убийц.

rating

Доп. информация: 9 побед и 10 номинаций.
Buffalo Dreams Fantastic Film Festival 2014
Cedar Rapids Independent Film Festival 2014
Louisville Fright Night Film Fest 2014
Macabre Faire Film Festival 2015
Nevermore Film Festival 2014
New Orleans Horror Film Festival 2014




Сэмпл: http://multi-up.com/1206925

Качество видео: WEBRip-AVC
Формат видео: MKV
Видео: 720x304 (2.35:1), 23.976 fps, MPEG4 Video (H264) Main@L3 ~ 2 399 kbps avg, 0.457 bit/pixel
Аудио: 48 kHz, MPEG Layer 3, 2 ch, ~ 192 kbps avg
Format : Matroska
Format version : Version 2
File size : 1.40 GiB
Duration : 1 h 18 min
Overall bit rate : 2 570 kb/s
Encoded date : UTC 2018-08-08 16:48:25 / UTC 2018-08-08 16:48:25
Writing application : Lavf54.63.104
Writing library : Lavf54.63.104

Video
ID : 1
Format : AVC
Format/Info : Advanced Video Codec
Format profile : Main@L3
Format settings, CABAC : Yes
Format settings, RefFrames : 1 frame
Codec ID : V_MPEG4/ISO/AVC
Duration : 1 h 18 min
Bit rate : 2 399 kb/s
Width : 720 pixels
Height : 304 pixels
Display aspect ratio : 2.35:1
Frame rate mode : Constant
Frame rate : 23.976 (24000/1001) FPS
Color space : YUV
Chroma subsampling : 4:2:0
Bit depth : 8 bits
Scan type : Progressive
Bits/(Pixel*Frame) : 0.457
Stream size : 1.27 GiB (91%)
Writing library : x264 core 129
Default : Yes
Forced : No

Audio
ID : 2
Format : MPEG Audio
Format version : Version 1
Format profile : Layer 3
Mode : Joint stereo
Mode extension : MS Stereo
Codec ID : A_MPEG/L3
Codec ID/Hint : MP3
Duration : 1 h 18 min
Bit rate mode : Constant
Bit rate : 192 kb/s
Channel(s) : 2 channels
Sampling rate : 48.0 kHz
Compression mode : Lossy
Stream size : 107 MiB (7%)
Default : Yes
Forced : No
скриншот  скриншот  скриншот  
pb.wtf



Скачать Убойная вечеринка через торрент https://d.radikal.ru/d01/1808/c4/4e53f8417d23.jpg Скачать фильм Убойная вечеринка через торрент бесплантно в хорошем качестве Описание: Группа друзей попадают в ловушку на детской вечеринке, когда загадочная вспышка эпидемии начинает превращать людей в ... 10 10 3
Торрент: Зарегистрирован [2018-08-22 12:59] · скачан: 102 раз
Статус: √ проверено
Размер: 1.4 GB
Как cкачать? Как скачать Убойная вечеринка через торрент | qTorrent

% Раздел Тема Автор DL S | L
Фильмы 2006-2008 [ 1.45 GB ] Убойная вечеринка / Killer Pad [2008 BDRip ] rulya74 Скачать
1 | 0

28-11-2019 20:33  

Отключить всю рекламу на сайте

    Дорогой пользователь! Огромная просьба, поблагодарите релизера, оцените раздачу и оставьте свои комментарий, если Вы скачали Убойная вечеринка через торрент бесплатно! Внесите свою лепту в развитие PiratBit!
    Комментировать посты могут только пользователи прошедшие не сложную регистрацию
    Показать сообщения:    

    Убойная вечеринка через торрент
    Скачать бесплатно Убойная вечеринка
    Убойная вечеринка скачать торрент
    Убойная вечеринка смотреть онлайн
    Cкачать фильм Убойная вечеринка бесплатно
    Убойная вечеринка скачать торрент в хорошем качестве
    Убойная вечеринка смотреть онлайн бесплатно в хорошем качестве


    Вы не можете начинать темы
    Вы не можете отвечать на сообщения
    Вы не можете редактировать свои сообщения
    Вы не можете удалять свои сообщения
    Вы не можете голосовать в опросах
    Вы не можете прикреплять файлы к сообщениям
    Вы можете скачивать файлы