Ссылка на приватное зеркало всего за 1$. Внимание количество ограничено!!!

OK

1+1

iTunes

мы

OK

1

WEB-DLRip

Джокер

Пифагор

Ведьмак / The Witcher сериал

iTunes

ПШазам

ОК

Оно 2

iTunes

30
pack

Вам бонус

ВАЖНО

!!Акция!!

Alien_RageХит недели

RePack

Resident Evil 21

ИГРА 18+

pack

RePack

jed

RePack

fifa19

RePack

Assassins Creed: Odyssey

RePack

NEED FOR SPEED™ PAYBACK

4 сезон

9 сезон

Бесстыжие 9 сезон

Все сериалы

все сериалы на PB.wtf

RePack

FAR CRY 5
  

Утечка / The Leaker (Герман Яу) [2018 г., Триллер, криминал, боевик, WEB-DLRip, Любительский (многоголосый)] [КОЛОБОК] pb.wtf

Утечка через торрент pb.wtf

Размер: 1.37 GB | Добавлен: 1 год 5 мес. назад | Торрент скачан:76 раз
Скачать  

22-08-2018 18:12 Утечка Скачать торрент  

Утечка / The Leaker
Год выпуска: 2018
Страна: Гонконг
Жанр: Триллер, криминал, боевик
Продолжительность: 01:43:54
Перевод: Любительский (многоголосый) | КОЛОБОК
Субтитры: Присутствуют (Китайские,Английские)

Режиссер: Герман Яу

rating

В ролях: Джулиан Чун, Крисси Чау, Сэм Ли, Френсис Нг, Чармейн Ше

Описание: Фильм сосредотачивается вокруг малазийской фармацевтической компании, распространившая новый вирус для создания эпидемии. Организация, известная как «Разоблачителем», раскрывает эту информацию. После самоубийства сына фармацевтической компании и гибели местного репортера, жена владельца фармацевтической компании отправляется в Гонконг. Начальник полиции Гонконга, полицейский и журналист, начинают её поиски.

Качество: WEB-DLRip
Формат: AVI
Видео кодек: XviD
Аудио кодек: AC3
Видео: XviD, 720x304 , 23.9fps, 1682 Kbps
Аудио#1: AC3 , 2 ch , 48 kHz , 192 kbps
скриншот   скриншот   скриншот   скриншот  

Общее
Полное имя : D:The.Leaker.2018.Pk.WEB-DLRip.14OOMB.avi
Формат : AVI
Формат/Информация : Audio Video Interleave
Размер файла : 1,37 Гбайт
Продолжительность : 1 ч. 43 м.
Общий поток : 1883 Кбит/сек
Программа кодирования : VirtualDubMod 1.5.10.2 (build 2540/release)
Библиотека кодирования : VirtualDubMod build 2540/release

Видео
Идентификатор : 0
Формат : MPEG-4 Visual
Профиль формата : Advanced Simple@L5
Параметр BVOP формата : 2
Параметр QPel формата : Нет
Параметр GMC формата : Без точки перехода
Параметр матрицы формата : Выборочная
Идентификатор кодека : XVID
Идентификатор кодека/Подсказка : XviD
Продолжительность : 1 ч. 43 м.
Битрейт : 1682 Кбит/сек
Ширина : 720 пикселей
Высота : 304 пикселя
Соотношение сторон : 2,35:1
Частота кадров : 23,976 кадра/сек
Цветовое пространство : YUV
Субдискретизация насыщенности : 4:2:0
Битовая глубина : 8 бит
Тип развёртки : Прогрессивная
Метод сжатия : С потерями
Бит/(Пиксели*Кадры) : 0.320
Размер потока : 1,22 Гбайт (89%)
Библиотека кодирования : XviD 1.2.1 (UTC 2008-12-04)

Аудио
Идентификатор : 1
Формат : AC-3
Формат/Информация : Audio Coding 3
Расширение режима : CM (complete main)
Параметр Endianness формата : Big
Идентификатор кодека : 2000
Продолжительность : 1 ч. 43 м.
Вид битрейта : Постоянный
Битрейт : 192 Кбит/сек
Каналы : 2 канала
Расположение каналов : Front: L R
Частота : 48,0 КГц
Битовая глубина : 16 бит
Метод сжатия : С потерями
Размер потока : 143 Мбайт (10%)
Выравнивание : Разделение по промежуткам
Продолжительность промежутка : 42 мс. (1,00 видеокадр)
Время предзагрузки промежутка : 500 мс.

pb.wtf



Скачать Утечка через торрент http://pic1.kartinco.top/images/11/xhnie.jpg Скачать фильм Утечка через торрент бесплантно в хорошем качестве Описание: Фильм сосредотачивается вокруг малазийской фармацевтической компании, распространившая новый вирус для создания эпидемии. ... 10 10 3
Торрент: Зарегистрирован [2018-08-22 18:12] · скачан: 76 раз
Статус: T временная
Размер: 1.37 GB
Как cкачать? Как скачать Утечка через торрент | qTorrent

% Раздел Тема Автор DL S | L
T Фильмы (мультфильмы) cо спонсором показа (Новинки AVI/MKV) [ 3.48 GB ] Утечка / The Leakers / Xie mi zhe [2018 WEB-DL 720p Любительский ] oleg8 Скачать
1 | 0

28-11-2019 20:33  

Отключить всю рекламу на сайте

23-08-2018 08:22 Утечка Скачать торрент  

После самоубийства сына фармацевтической компании... очевидно же, что во всем виноват дед фармацевтической компании. или тетя компании. а может быть даже двоюродный брат компании. жуть вопщем))pb.wtf



    Дорогой пользователь! Огромная просьба, поблагодарите релизера, оцените раздачу и оставьте свои комментарий, если Вы скачали Утечка через торрент бесплатно! Внесите свою лепту в развитие PiratBit!
    Комментировать посты могут только пользователи прошедшие не сложную регистрацию
    Показать сообщения:    

    Утечка через торрент
    Скачать бесплатно Утечка
    Утечка скачать торрент
    Утечка смотреть онлайн
    Cкачать фильм Утечка бесплатно
    Утечка скачать торрент в хорошем качестве
    Утечка смотреть онлайн бесплатно в хорошем качестве


    Вы не можете начинать темы
    Вы не можете отвечать на сообщения
    Вы не можете редактировать свои сообщения
    Вы не можете удалять свои сообщения
    Вы не можете голосовать в опросах
    Вы не можете прикреплять файлы к сообщениям
    Вы можете скачивать файлы