Ссылка на приватное зеркало нашего сайта всего за 1$. Внимание количество ограничено!!!

2 сезон

iTunes

1 сезон

1

2 сезон

2 сезон

iTunes

1 сезон

RePack

30

Новинка

ВАЖНО

ИГРА 18+

pack

RePack

MK11
pack

Забери бонус

RePack

jed

!!Акция!!

Alien_Rage

RePack

fifa19

RePack

Assassins Creed: Odyssey

RePack

NEED FOR SPEED™ PAYBACK

4 сезон

9 сезон

Бесстыжие 9 сезон

Все сериалы

все сериалы на PB.wtf

RePack

FAR CRY 5
  

Смертельное влечение / Heathers / Сезон: 1 / Серии: 1-10 из 10 (Кейт Дэннис, Сидни Фриланд, Лесли Хэдланд) [2018 , комедия, WEB-DL 720p] MVO [ColdFilm] pb.wtf

Смертельное влечение через торрент pb.wtf

Размер: 11.04 GB | Добавлен: 2 года 3 мес. назад | Торрент скачан:5 раз
Скачать  

22-08-2018 18:18 Смертельное влечение Скачать торрент  

Смертельное влечение / Heathers
Год выпуска: 2018
Страна: США
Жанр: комедия
Продолжительность: ~ 00:30:00
Перевод: Любительский многоголосый |
Субтитры: отсутствуют

Режиссер: Кейт Дэннис, Сидни Фриланд, Лесли Хэдланд

rating

В ролях:

Ромель Де Сильва, Эдвин Браун, Анналиса Кокрейн, Джереми Кюлхейн, Мэнди Джун Турпин, Кристина Бёрдетт, Джо Дон Харрис

Описание:

Симпатичная отличница Вероника не пользуется популярностью в школе. Она – аутсайдер, и взамен на дружбу готова буквально прислуживать популярным ученикам. Так Вероника попадает в «друзья» к троице учеников, которых зовут одинаково: Хезер. Веронике не слишком нравятся сами Хезер и их отношение к ней. И тут в школе появляется новый ученик, Джейсон, который полностью изменит жизнь Вероники.

Качество: WEB-DL 720p
Формат: MKV

Видео: 4000 Кбит/с, 1280x720, 23.97 fps
Аудио: AC3, 2 ch, 192 Кбит/с
скриншот  скриншот  скриншот  

General
Unique ID : 210048274726663086575480647195267294940 (0x9E05D382417BD04BA376F1F0028DE6DC)
Complete name : D:Heathers.S01E01.720p.WEB-DL.ColdFilm.mkv
Format : Matroska
Format version : Version 2
File size : 1.23 GiB
Duration : 42 min 48 s
Overall bit rate : 4 121 kb/s
Encoded date : UTC 2018-02-20 17:13:47 / UTC 2018-02-20 08:38:12
Writing application : mkvmerge v3.3.0 ('Language') built on Mar 24 2010 14:59:24
Writing library : libebml v0.8.0 + libmatroska v0.9.0 / Lavf54.63.104

Video
ID : 1
Format : AVC
Format/Info : Advanced Video Codec
Format profile : Main@L3.1
Format settings : CABAC / 1 Ref Frames
Format settings, CABAC : Yes
Format settings, ReFrames : 1 frame
Codec ID : V_MPEG4/ISO/AVC
Duration : 42 min 48 s
Bit rate : 4 000 kb/s
Width : 1 280 pixels
Height : 720 pixels
Display aspect ratio : 16:9
Frame rate mode : Constant
Frame rate : 23.976 (24000/1001) FPS
Color space : YUV
Chroma subsampling : 4:2:0
Bit depth : 8 bits
Scan type : Progressive
Bits/(Pixel*Frame) : 0.181
Stream size : 1.15 GiB (93%)
Writing library : x264 core 129
Encoding settings : cabac=1 / ref=1 / deblock=1:0:0 / analyse=0x1:0x131 / me=dia / subme=2 / psy=1 / psy_rd=1.00:0.00 / mixed_ref=0 / me_range=16 / chroma_me=1 / trellis=0 / 8x8dct=0 / cqm=0 / deadzone=21,11 / fast_pskip=1 / chroma_qp_offset=0 / threads=4 / lookahead_threads=1 / sliced_threads=0 / nr=0 / decimate=1 / interlaced=0 / bluray_compat=0 / constrained_intra=0 / bframes=0 / weightp=2 / keyint=250 / keyint_min=25 / scenecut=40 / intra_refresh=0 / rc_lookahead=40 / rc=abr / mbtree=1 / bitrate=4000 / ratetol=1.0 / qcomp=0.60 / qpmin=10 / qpmax=51 / qpstep=4 / ip_ratio=1.41 / aq=1:1.00
Default : No
Forced : No

Audio
ID : 2
Format : AC-3
Format/Info : Audio Coding 3
Codec ID : A_AC3
Duration : 42 min 48 s
Bit rate mode : Constant
Bit rate : 192 kb/s
Channel(s) : 2 channels
Channel positions : Front: L R
Sampling rate : 48.0 kHz
Frame rate : 31.250 FPS (1536 SPF)
Bit depth : 16 bits
Compression mode : Lossy
Stream size : 58.8 MiB (5%)
Service kind : Complete Main
Default : Yes
Forced : No

pb.wtf



Скачать Смертельное влечение через торрент http://img11.lostpic.net/2018/08/22/8c14eca5bbe70929e8bee61c219a34e1.jpg Скачать фильм Смертельное влечение через торрент бесплантно в хорошем качестве Описание: Симпатичная отличница Вероника не пользуется популярностью в школе. Она – аутсайдер, и взамен на дружбу готова буквально ... 10 10 2
Торрент: Зарегистрирован [2018-08-22 18:18] · скачан: 5 раз
Статус: √ проверено
Размер: 11.04 GB
Как cкачать? Как скачать Смертельное влечение через торрент | qTorrent

% Раздел Тема Автор DL S | L
Зарубежные сериалы [ 4.07 GB ] Смертельное влечение / Heathers / Сезон: 1 / Серии: 1-10 из 10 [2018 WEB-DLRip] MVO [ColdFilm] bober100 Скачать
1 | 0
Зарубежные сериалы [ 8.18 GB ] Смертельное влечение / Heathers / Сезон: 1 / Серии: 1-10 из 10 [2018 WEBRip 720p] MVO [Jaskier] bober100 Скачать
1 | 0
Зарубежные сериалы [ 7.44 GB ] Смертельное влечение / Heathers / Сезон: 1 / Серии: 1-10 из 10 [2018 WEBRip 720p] MVO [Baibako] bober100 Скачать
1 | 0
Зарубежные сериалы [ 4.95 GB ] Смертельное влечение / Heathers / Сезон: 1 / Серии: 1-10 из 10 [2018 WEBRip] MVO [Jaskier] bober100 Скачать
1 | 0
Зарубежные сериалы [ 2.07 GB ] Смертельное влечение / Heathers / Сезон: 1 / Серии: 1 из 10 [2018 WEBRip 1080p] MVO [Jaskier] bober100 Скачать
1 | 0
Зарубежные сериалы [ 550 MB ] Смертельное влечение / Heathers / Сезон: 1 / Серии: 1 из 10 [2018 WEB-DLRip] MVO [NewStudio] bober100 Скачать
1 | 0

28-11-2019 20:33  

Отключить всю рекламу на сайте

    Дорогой пользователь! Огромная просьба, поблагодарите релизера, оцените раздачу и оставьте свои комментарий, если Вы скачали Смертельное влечение через торрент бесплатно! Внесите свою лепту в развитие PiratBit!
    Комментировать посты могут только пользователи прошедшие не сложную регистрацию
    Показать сообщения:    

    Смертельное влечение через торрент
    Скачать бесплатно Смертельное влечение
    Смертельное влечение скачать торрент
    Смертельное влечение смотреть онлайн
    Cкачать фильм Смертельное влечение бесплатно
    Смертельное влечение скачать торрент в хорошем качестве
    Смертельное влечение смотреть онлайн бесплатно в хорошем качестве


    Вы не можете начинать темы
    Вы не можете отвечать на сообщения
    Вы не можете редактировать свои сообщения
    Вы не можете удалять свои сообщения
    Вы не можете голосовать в опросах
    Вы не можете прикреплять файлы к сообщениям
    Вы можете скачивать файлы