Ссылка на приватное зеркало всего за 1$. Внимание количество ограничено!!!

OK

1+1

iTunes

мы

OK

1

WEB-DLRip

Джокер

Пифагор

Ведьмак / The Witcher сериал

iTunes

ПШазам

ОК

Оно 2

iTunes

30
pack

Вам бонус

ВАЖНО

!!Акция!!

Alien_RageХит недели

RePack

Resident Evil 21

ИГРА 18+

pack

RePack

jed

RePack

fifa19

RePack

Assassins Creed: Odyssey

RePack

NEED FOR SPEED™ PAYBACK

4 сезон

9 сезон

Бесстыжие 9 сезон

Все сериалы

все сериалы на PB.wtf

RePack

FAR CRY 5
  

Утечка / The Leakers / Xie mi zhe (Херман Яу) [2018 г., Боевик, криминал, триллер, WEB-DL 720p, Любительский (многоголосый)(КОЛОБОК)] pb.wtf

Утечка через торрент pb.wtf

Размер: 3.48 GB | Добавлен: 1 год 5 мес. назад | Торрент скачан:105 раз
Скачать  

23-08-2018 12:08 Утечка Скачать торрент  

Утечка / The Leakers / Xie mi zhe
Год выпуска: 2018
Страна: Гонконг
Жанр: Боевик, криминал, триллер
Продолжительность: 01:41:32
Перевод: Любительский (многоголосый)(КОЛОБОК)
Субтитры: Китайские, английские (хардсаб)

Режиссер: Херман Яу

rating

В ролях: Френсис Нг, Джулиан Чун, Чармейн Ше, Крисси Чау, Сэм Ли

Описание: В Малайзии происходит вспышка заболевания, вызванного высоко заразным вирусом. Врачи опробывают новое лекарство на добровольцах, а вокруг происходят странные смерти — погибает местный репортер, сын председателя фармацевтической компании кончает с собой, а его жена пускается в бега. Гонконгский полицейский получает видео от таинственной организации, называющей себя «Разоблачителем», где утверждается, что та самая фармацевтическая компания и распространила страшный вирус.

Доп. информация:

Качество: WEB-DL 720p
Формат: AVI
Видео кодек: AVC
Аудио кодек: AC3
Видео: H.264/AVC, 1280x534, ~4424 Kbps
Аудио#1: AC-3, 2 ch, 384 Kbps
скриншот   скриншот   скриншот   скриншот  

Общее
Полное имя : E:\NNM\Утечка\The Leaker 2018 WEBRip 720p-LQ.mkv
Формат : Matroska
Версия формата : Version 2
Размер файла : 3,48 Гбайт
Продолжительность : 1 ч. 41 м.
Режим общего битрейта : Переменный
Общий поток : 4905 Кбит/сек
Программа кодирования : libmatroska 1.4.1

Видео
Идентификатор : 1
Формат : AVC
Формат/Информация : Advanced Video Codec
Профиль формата : High@L4.1
Настройки формата : CABAC / 4 Ref Frames
Параметр CABAC формата : Да
Параметр RefFrames формата : 4 кадра
Идентификатор кодека : V_MPEG4/ISO/AVC
Продолжительность : 1 ч. 41 м.
Вид битрейта : Переменный
Битрейт : 4424 Кбит/сек
Максимальный битрейт : 5000 Кбит/сек
Ширина : 1280 пикселей
Высота : 534 пикселя
Соотношение сторон : 2,40:1
Режим частоты кадров : Постоянный
Частота кадров : 23,976 (24000/1001) кадра/сек
Стандарт вещания : Component
Цветовое пространство : YUV
Субдискретизация насыщенности : 4:2:0
Битовая глубина : 8 бит
Тип развёртки : Прогрессивная
Бит/(Пиксели*Кадры) : 0.270
Размер потока : 3,14 Гбайт (90%)
Default : Нет
Forced : Нет
Цветовой диапазон : Limited
Основные цвета : BT.709
Характеристики трансфера : BT.709
Коэффициенты матрицы : BT.709

Аудио
Идентификатор : 2
Формат : AC-3
Формат/Информация : Audio Coding 3
Идентификатор кодека : A_AC3
Продолжительность : 1 ч. 41 м.
Вид битрейта : Постоянный
Битрейт : 384 Кбит/сек
Каналы : 2 канала
Расположение каналов : Front: L R
Частота : 48,0 КГц
Частота кадров : 31,250 кадров/сек (1536 SPF)
Битовая глубина : 16 бит
Метод сжатия : С потерями
Размер потока : 279 Мбайт (8%)
ServiceKind/String : Complete Main
Default : Нет
Forced : Нет

pb.wtf



Скачать Утечка через торрент http://pic1.kartinco.top/images/11/wukg4.jpg Скачать фильм Утечка через торрент бесплантно в хорошем качестве Описание: В Малайзии происходит вспышка заболевания, вызванного высоко заразным вирусом. Врачи опробывают новое лекарство на добровольцах, ... 7.7 10 3
Торрент: Зарегистрирован [2018-08-23 12:08] · скачан: 105 раз
Статус: T временная
Размер: 3.48 GB
Как cкачать? Как скачать Утечка через торрент | qTorrent

28-11-2019 20:33  

Отключить всю рекламу на сайте

20-09-2018 06:39 Утечка Скачать торрент  

"с рекламой" - но это "колобок", и альтернативы не будет очень долго, придётся потерпеть.pb.wtf



    Дорогой пользователь! Огромная просьба, поблагодарите релизера, оцените раздачу и оставьте свои комментарий, если Вы скачали Утечка через торрент бесплатно! Внесите свою лепту в развитие PiratBit!
    Комментировать посты могут только пользователи прошедшие не сложную регистрацию
    Показать сообщения:    

    Утечка через торрент
    Скачать бесплатно Утечка
    Утечка скачать торрент
    Утечка смотреть онлайн
    Cкачать фильм Утечка бесплатно
    Утечка скачать торрент в хорошем качестве
    Утечка смотреть онлайн бесплатно в хорошем качестве


    Вы не можете начинать темы
    Вы не можете отвечать на сообщения
    Вы не можете редактировать свои сообщения
    Вы не можете удалять свои сообщения
    Вы не можете голосовать в опросах
    Вы не можете прикреплять файлы к сообщениям
    Вы можете скачивать файлы