Достать ножи: Стеклянная луковица

MVO

Добыча

Дубляж

Уэнсдэй

1 сезон

Тор

Дубляж

13 клиническая

1 сезон

Жестокая ночь

MVO

Одни из нас

1 сезон

Deluxe

pack

Рекомендуем

30

Пиратка

ВАЖНО

ВАЖНО

Ghostwire

Пиратка

jed

RePack

nioh2

RePack

RDR2

RePack

NEED FOR SPEED™ PAYBACK

RePack

скачать торрент

Кинопоиск HD

Острые козырьки 6 сезон

6 сезон

FAR CRY 6

RePack

скачать торрент

Лицензия

скачать торрент

MVO

1

1 сезон

скачать торрент

1 сезон

скачать торрент

Лицензия

  

Ханна Монтана: Кино / Hannah Montana: The Movie (Питер Челсом) [2009, драма, мелодрама, комедия, семейный, музыка, BDRip 1080p ] Дубляж, 2 x DVO

Ханна Монтана: Кино через торрент pb.wtf

Размер: 13.26 GB | Добавлен: 4 года 5 мес. назад | Торрент скачан:2 раза
Смотреть онлайн | Скачать | Поддержите нас   

24-08-2018 06:22 Ханна Монтана: Кино Скачать торрент  

Название: Ханна Монтана: Кино
Оригинальное название: Hannah Montana: The Movie
Год выпуска: 2009
Страна: США
Жанр: драма, мелодрама, комедия, семейный, музыка
Продолжительность: 01:42:20
Перевод: дублированный, закадровый двухголосый

Режиссер: Питер Челсом
В ролях: Майли Сайрус, Билли Рэй Сайрус, Эмили Осмент, Джейсон Эрлс, Митчел Муссо, Мойзес Ариас, Лукас Тилл, Ванесса Уильямс, Марго Мартиндейл, Питер Ганн, Гэри ЛеВокс, Джей ДеМаркус, Джо Дон Руни, Джошуа Чайлдз

Описание: Когда популярность Ханны Монтаны берёт верх над жизнью Майли Стюарт, отец принимает решение совершить поездку в её родной город Тенесси, чтобы понять какая перспектива имеет большее значение в жизни Майли...



Качество: BDRip 1080p
Формат: MKV
Видео: MPEG-4 AVC, 16.1 Mбит/с, 1920x1040
Аудио 1: русский, AC3, 192 kbps, 2 ch, 48 kHz [дублированный]
Аудио 2: русский, AC3, 384 kbps, 6 ch, 48 kHz [закадровый двухголосый, HTB+]
Аудио 3: русский, AC3, 384 kbps, 6 ch, 48 kHz [закадровый двухголосый]
Аудио 4: английский, DTS, 1509 kbps, 6 ch, 48 kHz [оригинал]
Субтитры 1: русские
Субтитры 2: английские
Главы/чаптеры
Общее
Уникальный идентификатор : 211862646150646927964400334434917169687 (0x9F6342ED32DD7A068A83C85D58883A17)
Полное имя : D:\Video\Ханна Монтана.2009.BDRip.1080p by msltel.mkv
Формат : Matroska
Версия формата : Version 4 / Version 2
Размер файла : 13,3 Гбайт
Продолжительность : 1 ч. 42 м.
Общий поток : 18,6 Мбит/сек
Название фильма : SelectRangeEvery(2*(FrameCount()/100), 50)
Дата кодирования : UTC 2018-08-24 05:13:04
Программа кодирования : mkvmerge v8.2.0 ('World of Adventure') 64bit
Библиотека кодирования : libebml v1.3.1 + libmatroska v1.4.2

Видео
Идентификатор : 1
Формат : AVC
Формат/Информация : Advanced Video Codec
Профиль формата : [email protected]
Настройки формата : CABAC / 4 Ref Frames
Параметр CABAC формата : Да
Параметр RefFrames формата : 4 кадра
Идентификатор кодека : V_MPEG4/ISO/AVC
Продолжительность : 1 ч. 42 м.
Битрейт : 16,1 Мбит/сек
Ширина : 1920 пикселей
Высота : 1040 пикселей
Соотношение сторон : 1,85:1
Режим частоты кадров : Постоянный
Частота кадров : 23,976 (24000/1001) кадра/сек
Цветовое пространство : YUV
Субдискретизация насыщенности : 4:2:0
Битовая глубина : 8 бит
Тип развёртки : Прогрессивная
Бит/(Пиксели*Кадры) : 0.336
Размер потока : 11,5 Гбайт (87%)
Библиотека кодирования : x264 core 155 r2901 7d0ff22
Настройки программы : cabac=1 / ref=4 / deblock=1:-3:-2 / analyse=0x3:0x113 / me=umh / subme=11 / psy=1 / psy_rd=1.00:0.15 / mixed_ref=1 / me_range=32 / chroma_me=1 / trellis=2 / 8x8dct=1 / cqm=0 / deadzone=21,11 / fast_pskip=0 / chroma_qp_offset=-3 / threads=6 / lookahead_threads=1 / sliced_threads=0 / nr=0 / decimate=1 / interlaced=0 / bluray_compat=0 / constrained_intra=0 / bframes=6 / b_pyramid=2 / b_adapt=2 / b_bias=0 / direct=1 / weightb=1 / open_gop=0 / weightp=2 / keyint=230 / keyint_min=23 / scenecut=40 / intra_refresh=0 / rc_lookahead=40 / rc=crf / mbtree=1 / crf=17.3 / qcomp=0.60 / qpmin=0 / qpmax=69 / qpstep=4 / vbv_maxrate=62500 / vbv_bufsize=78125 / crf_max=0.0 / nal_hrd=none / filler=0 / ip_ratio=1.40 / aq=1:1.00
Язык : English
Default : Да
Forced : Нет

Аудио #1
Идентификатор : 2
Формат : AC-3
Формат/Информация : Audio Coding 3
Идентификатор кодека : A_AC3
Продолжительность : 1 ч. 42 м.
Вид битрейта : Постоянный
Битрейт : 192 Кбит/сек
Каналы : 2 канала
Расположение каналов : Front: L R
Частота : 48,0 КГц
Частота кадров : 31,250 кадров/сек (1536 SPF)
Битовая глубина : 16 бит
Метод сжатия : С потерями
Размер потока : 141 Мбайт (1%)
Заголовок : Дубляж
Язык : Russian
ServiceKind/String : Complete Main
Default : Да
Forced : Нет

Аудио #2
Идентификатор : 3
Формат : AC-3
Формат/Информация : Audio Coding 3
Идентификатор кодека : A_AC3
Продолжительность : 1 ч. 42 м.
Вид битрейта : Постоянный
Битрейт : 384 Кбит/сек
Каналы : 6 каналов
Расположение каналов : Front: L C R, Side: L R, LFE
Частота : 48,0 КГц
Частота кадров : 31,250 кадров/сек (1536 SPF)
Битовая глубина : 16 бит
Метод сжатия : С потерями
Размер потока : 281 Мбайт (2%)
Заголовок : DVO HTB+
Язык : Russian
ServiceKind/String : Complete Main
Default : Нет
Forced : Нет

Аудио #3
Идентификатор : 4
Формат : AC-3
Формат/Информация : Audio Coding 3
Идентификатор кодека : A_AC3
Продолжительность : 1 ч. 42 м.
Вид битрейта : Постоянный
Битрейт : 384 Кбит/сек
Каналы : 6 каналов
Расположение каналов : Front: L C R, Side: L R, LFE
Частота : 48,0 КГц
Частота кадров : 31,250 кадров/сек (1536 SPF)
Битовая глубина : 16 бит
Метод сжатия : С потерями
Размер потока : 281 Мбайт (2%)
Заголовок : DVO
Язык : Russian
ServiceKind/String : Complete Main
Default : Нет
Forced : Нет

Аудио #4
Идентификатор : 5
Формат : DTS
Формат/Информация : Digital Theater Systems
Идентификатор кодека : A_DTS
Продолжительность : 1 ч. 42 м.
Вид битрейта : Постоянный
Битрейт : 1509 Кбит/сек
Каналы : 6 каналов
Расположение каналов : Front: L C R, Side: L R, LFE
Частота : 48,0 КГц
Частота кадров : 93,750 кадра/сек (512 SPF)
Битовая глубина : 16 бит
Метод сжатия : С потерями
Размер потока : 1,08 Гбайт (8%)
Заголовок : original
Язык : English
Default : Нет
Forced : Нет

Текст #1
Идентификатор : 6
Формат : UTF-8
Идентификатор кодека : S_TEXT/UTF8
Идентификатор кодека/Информация : UTF-8 Plain Text
Продолжительность : 1 ч. 38 м.
Битрейт : 84 бит/сек
ElementCount : 1007
Размер потока : 61,2 Кбайт (0%)
Заголовок : русские
Язык : Russian
Default : Нет
Forced : Нет

Текст #2
Идентификатор : 7
Формат : UTF-8
Идентификатор кодека : S_TEXT/UTF8
Идентификатор кодека/Информация : UTF-8 Plain Text
Продолжительность : 1 ч. 38 м.
Битрейт : 58 бит/сек
ElementCount : 1197
Размер потока : 42,4 Кбайт (0%)
Заголовок : английские
Язык : English
Default : Нет
Forced : Нет

Меню
00:00:00.000 : en:00:00:00.000
00:08:44.107 : en:00:08:44.107
00:16:59.518 : en:00:16:59.518
00:26:02.936 : en:00:26:02.936
00:32:21.273 : en:00:32:21.273
00:41:12.512 : en:00:41:12.512
00:47:11.787 : en:00:47:11.787
00:55:51.306 : en:00:55:51.306
01:05:19.791 : en:01:05:19.791
01:15:10.339 : en:01:15:10.339
01:24:22.391 : en:01:24:22.391
01:32:13.862 : en:01:32:13.862
01:37:46.110 : en:01:37:46.110



Скачать Ханна Монтана: Кино через торрент https://d.radikal.ru/d01/1808/13/9152fe3b0f3e.jpg Скачать, смотреть онлайн Ханна Монтана: Кино бесплантно в хорошем качестве Описание: Когда популярность Ханны Монтаны берёт верх над жизнью Майли Стюарт, отец принимает решение совершить поездку в её родной город ... 10 10 2
Info! Золотая раздача, скачанное не засчитывается.
Торрент: Зарегистрирован [2018-08-24 06:22] · скачан: 2 раз
Статус: √ проверено
Размер: 13.26 GB
Как cкачать? Как скачать Ханна Монтана: Кино через торрент | UTorrent

28-11-2019 20:33  


Отключить вcю реклaмy на сайте, в т.ч. и в плеере онлайн просмотра!

    Дорогой пользователь! Огромная просьба, поблагодарите релизера, оцените раздачу и оставьте свои комментарий, если Вы скачали Ханна Монтана: Кино через торрент бесплатно!!
    Комментировать посты могут только пользователи прошедшие не сложную регистрацию
    Показать сообщения:    


    Ханна Монтана: Кино через торрент
    Скачать бесплатно Ханна Монтана: Кино
    Ханна Монтана: Кино скачать торрент
    Ханна Монтана: Кино смотреть онлайн
    Cкачать фильм Ханна Монтана: Кино бесплатно
    Ханна Монтана: Кино скачать торрент в хорошем качестве
    Ханна Монтана: Кино смотреть онлайн бесплатно в хорошем качестве
    Вы не можете начинать темы
    Вы не можете отвечать на сообщения
    Вы не можете редактировать свои сообщения
    Вы не можете удалять свои сообщения
    Вы не можете голосовать в опросах
    Вы не можете прикреплять файлы к сообщениям
    Вы можете скачивать файлы
    Ханна Монтана: Кино / Hannah Montana: The Movie [2009, драма, мелодрама, комедия, семейный, музыка, BDRip 1080p ] Дубляж, 2 x DVO смотреть онлайн, скачать торрент picoco.icu