новый адрес пиратбит piratbit
Мега распродажа FORZA HORIZON 4 ULTIMATE+ВСЕ DLC+ОНЛАЙН всего за 499р. 349 руб. (супер цена). Внимание количество ограничено!!!

iTunes

1+1

iTunes

мы

iTunes

1

iTunes

Чернобыль

iTunes

Ральф против интернета

Лицензия

ПШазам

Лицензия

Игра престолов

Лицензия

30
pack

ВАЖНО

!!Акция!!

Alien_RageХит недели

RePack

Resident Evil 21

ИГРА 18+

pack

RePack

Metro:Exodus

!!Акция!!

Alien_Rage

RePack

fifa19

RePack

Assassins Creed: Odyssey

RePack

NEED FOR SPEED™ PAYBACK

3 сезон

9 сезон

Бесстыжие 9 сезон

Все сериалы

все сериалы на PB.wtf

RePack

FAR CRY 5
Ребята, катастрофически не хватает 1900р. для оплаты серверов за Октябрь (всвязи с блокировками трафик упал в 3 раза), 1-2р., выручайте.
  

Искушение Б (Аркадий Сиренко) [1990 г., Фантастика, драма, DVDRip-AVC] pb.wtf

Искушение Б через торрент pb.wtf

Размер: 2.19 GB | Добавлен: 1 год 2 мес. назад | Торрент скачан:36 раз
Скачать  

24-08-2018 18:32 Искушение Б Скачать торрент  

Искушение Б
Год выпуска: 1990
Страна: СССР
Жанр: Фантастика, драма
Продолжительность: 01:18:59

Режиссер: Аркадий Сиренко



В ролях: Лембит Ульфсак, Олег Борисов, Наталья Гундарева, Владимир Зельдин, Станислав Садальский, Александр Пашутин, Анна Овсянникова, Анатолий Голик, Александр Котов, Валентин Брылеев

Описание: Фильм снят по книге "Пять ложек эликсира" братьев Аркадия и Бориса Стругацких. Писатель средней руки Феликс Снегирев становится обладателем страшной тайны секты бессмертных. Он узнает о существовании эликсира вечной жизни. Теперь перед ним встает нелегкий выбор: умереть или стать бессмертным?..

Качество: DVDRip-AVC
Формат: MKV
Видео кодек: AVC
Аудио кодек: AC3
Видео: AVC, 696x572@742x572 , 25.0fps, 3437 Kbps
Аудио#1: AC3 , 6 ch , 48 kHz , 448 kbps
скриншот   скриншот   скриншот   скриншот  

Уникальный идентификатор : 244956647913664133326380967711021504240 (0xB848EF30359106C2A1DF29E1F0CC96F0)
Полное имя : D:Искушение Б_1990-DVDRip-AVC_KORSAR.mkv
Формат : Matroska
Версия формата : Version 2
Размер файла : 2,19 Гбайт
Продолжительность : 1 ч. 18 м.
Общий поток : 3964 Кбит/сек
Дата кодирования : UTC 2018-03-30 15:09:08
Программа кодирования : mkvmerge v5.8.0 ('No Sleep / Pillow') built on Sep 2 2012 15:37:04
Библиотека кодирования : libebml v1.2.3 + libmatroska v1.3.0

Видео
Идентификатор : 1
Формат : AVC
Формат/Информация : Advanced Video Codec
Профиль формата : High@L4.1
Параметр CABAC формата : Да
Параметр RefFrames формата : 13 кадров
Идентификатор кодека : V_MPEG4/ISO/AVC
Продолжительность : 1 ч. 18 м.
Битрейт : 3437 Кбит/сек
Ширина : 696 пикселей
Высота : 572 пикселя
Соотношение сторон : 1,297
Соотношение сторон в оригинале : 1,298
Режим частоты кадров : Постоянный
Частота кадров : 25,000 кадров/сек
Цветовое пространство : YUV
Субдискретизация насыщенности : 4:2:0
Битовая глубина : 8 бит
Тип развёртки : Прогрессивная
Бит/(Пиксели*Кадры) : 0.345
Размер потока : 1,90 Гбайт (87%)
Библиотека кодирования : x264 core 148 r2744kMod b97ae06
Настройки программы : cabac=1 / ref=13 / deblock=1:-2:-1 / analyse=0x3:0x133 / me=umh / subme=10 / psy=1 / fade_compensate=0.00 / psy_rd=1.03:0.10 / mixed_ref=1 / me_range=32 / chroma_me=1 / trellis=2 / 8x8dct=1 / cqm=0 / deadzone=21,11 / fast_pskip=1 / chroma_qp_offset=-3 / threads=12 / lookahead_threads=2 / sliced_threads=0 / nr=0 / decimate=1 / interlaced=0 / bluray_compat=0 / constrained_intra=0 / bframes=9 / b_pyramid=2 / b_adapt=2 / b_bias=0 / direct=1 / weightb=1 / open_gop=0 / weightp=2 / keyint=250 / keyint_min=25 / scenecut=40 / intra_refresh=0 / rc=crf / mbtree=0 / crf=17.9000 / qcomp=0.63 / qpmin=0 / qpmax=39 / qpstep=4 / ip_ratio=1.40 / pb_ratio=1.30 / aq=1:0.90
Язык : English
Default : Да
Forced : Нет
Цветовой диапазон : Limited
Основные цвета : BT.601 PAL
Характеристики трансфера : BT.470 System B, BT.470 System G
Коэффициенты матрицы : BT.601

Аудио
Идентификатор : 2
Формат : AC-3
Формат/Информация : Audio Coding 3
Параметр Endianness формата : Big
Идентификатор кодека : A_AC3
Продолжительность : 1 ч. 18 м.
Вид битрейта : Постоянный
Битрейт : 448 Кбит/сек
Каналы : 6 каналов
Расположение каналов : Front: L C R, Side: L R, LFE
Частота : 48,0 КГц
Частота кадров : 31,250 кадров/сек (1536 SPF)
Битовая глубина : 16 бит
Метод сжатия : С потерями
Размер потока : 253 Мбайт (11%)
Язык : Russian
Default : Да
Forced : Нет

pb.wtf



Скачать Искушение Б через торрент http://pic1.kartinco.top/images/11/ke71z.jpg Скачать фильм Искушение Б через торрент бесплантно в хорошем качестве Описание: Фильм снят по книге "Пять ложек эликсира" братьев Аркадия и Бориса Стругацких. Писатель средней руки Феликс Снегирев становится ... 10 10 3
Торрент: Зарегистрирован [2018-08-24 18:32] · скачан: 36 раз
Статус: √ проверено
Размер: 2.19 GB
Как cкачать? Как скачать Искушение Б через торрент | qTorrent


>> Регистрируемся здесь <<






Отзывы и комментарии о схеме читаем и пишем здесь: ---> Отзывы и комментарии о схеме

Новые благодарочки в телеграм довольных пользователей:
скриншот   скриншот   скриншот   скриншот   скриншот

26-08-2018 13:14 Искушение Б Скачать торрент  

Классный фильм ))) шикарный )))pb.wtf



    Дорогой пользователь! Огромная просьба, поблагодарите релизера, оцените раздачу и оставьте свои комментарий, если Вы скачали Искушение Б через торрент бесплатно! Внесите свою лепту в развитие PiratBit!
    Комментировать посты могут только пользователи прошедшие не сложную регистрацию
    Показать сообщения:    

    Искушение Б через торрент
    Скачать бесплатно Искушение Б
    Искушение Б скачать торрент
    Искушение Б смотреть онлайн
    Cкачать фильм Искушение Б бесплатно
    Искушение Б скачать торрент в хорошем качестве
    Искушение Б смотреть онлайн бесплатно в хорошем качестве


    Вы не можете начинать темы
    Вы не можете отвечать на сообщения
    Вы не можете редактировать свои сообщения
    Вы не можете удалять свои сообщения
    Вы не можете голосовать в опросах
    Вы не можете прикреплять файлы к сообщениям
    Вы можете скачивать файлы