новый адрес
Мега распродажа FORZA HORIZON 4 ULTIMATE+ВСЕ DLC+ОНЛАЙН всего за 499р. 349 руб. (супер цена). Внимание количество ограничено!!!

iTunes

1+1

iTunes

мы

iTunes

1

iTunes

Чернобыль

iTunes

Ральф против интернета

Лицензия

ПШазам

Лицензия

Оно 2

Лицензия

30
pack

ВАЖНО

!!Акция!!

Alien_RageХит недели

RePack

Resident Evil 21

ИГРА 18+

pack

RePack

jed

!!Акция!!

Alien_Rage

RePack

fifa19

RePack

Assassins Creed: Odyssey

RePack

NEED FOR SPEED™ PAYBACK

3 сезон

9 сезон

Бесстыжие 9 сезон

Все сериалы

все сериалы на PB.wtf

RePack

FAR CRY 5
Ребята, катастрофически не хватает 1900р. для оплаты серверов за Октябрь (всвязи с блокировками трафик упал в 3 раза), 1-2р., выручайте.
  

#Зановородиться (Александр Петров) [2018 г., Драма, музыка, WEB-DLRip, Не требуется Русский] pb.wtf

#Зановородиться через торрент pb.wtf

Раздают: 2 [ 0 KB/s ]
Размер: 1.37 GB | Добавлен: 1 год 2 мес. назад | Торрент скачан:618 раз
Скачать  

25-08-2018 09:52 #Зановородиться Скачать торрент  

#Зановородиться
Год выпуска: 2018
Страна: Россия
Жанр: Драма, музыка
Продолжительность: 01:42:5
Перевод: Не требуется Русский
Субтитры: Нет

Режиссер: Александр Петров

В ролях: Александр Петров, Ирина Старшенбаум

Описание: Трансляция спектакля, сюжет которого — рассказ о двух влюбленных людях, чья случайная встреча в кафе творит с главным героем совершенно сумасшедшие вещи.

Доп. информация: Рекламы нет

Качество: WEB-DLRip
Формат: AVI
Видео кодек: XviD
Аудио кодек: AC3
Видео: Xvid, 720x304 (2.35:1), ~1700 Kbps
Аудио#1: AC3, 2 ch, 192 Kbps
скриншот   скриншот   скриншот   скриншот  

Общее
Полное имя : D:\Зановородиться (2018).avi
Формат : AVI
Формат/Информация : Audio Video Interleave
Размер файла : 1,37 Гбайт
Продолжительность : 1 ч. 42 м.
Общий поток : 1904 Кбит/сек
Программа кодирования : VirtualDubMod 1.5.10.3 | www.virtualdub-fr.org || (build 2550/release)
Библиотека кодирования : VirtualDubMod build 2550/release

Видео
Идентификатор : 0
Формат : MPEG-4 Visual
Профиль формата : Advanced Simple@L5
Настройки формата : BVOP1 / Custom Matrix
Параметр BVOP формата : 1
Параметр QPel формата : Нет
Параметр GMC формата : Без точки перехода
Параметр матрицы формата : Выборочная
Идентификатор кодека : XVID
Идентификатор кодека/Подсказка : XviD
Продолжительность : 1 ч. 42 м.
Битрейт : 1702 Кбит/сек
Ширина : 720 пикселей
Высота : 304 пикселя
Соотношение сторон : 2,35:1
Частота кадров : 25,000 кадров/сек
Цветовое пространство : YUV
Субдискретизация насыщенности : 4:2:0
Битовая глубина : 8 бит
Тип развёртки : Прогрессивная
Метод сжатия : С потерями
Бит/(Пиксели*Кадры) : 0.311
Размер потока : 1,22 Гбайт (89%)
Библиотека кодирования : XviD 73

Аудио
Идентификатор : 1
Формат : AC-3
Формат/Информация : Audio Coding 3
Идентификатор кодека : 2000
Продолжительность : 1 ч. 42 м.
Вид битрейта : Постоянный
Битрейт : 192 Кбит/сек
Каналы : 2 канала
Расположение каналов : Front: L R
Частота : 48,0 КГц
Частота кадров : 31,250 кадров/сек (1536 SPF)
Битовая глубина : 16 бит
Метод сжатия : С потерями
Размер потока : 141 Мбайт (10%)
Выравнивание : Разделение по промежуткам
Продолжительность промежутка : 40 мс. (1,00 видеокадр)
Время предзагрузки промежутка : 500 мс.
ServiceKind/String : Complete Main

pb.wtf



Скачать #Зановородиться через торрент http://pic1.kartinco.top/images/11/lmigd.jpg Скачать фильм #Зановородиться через торрент бесплантно в хорошем качестве Описание: Трансляция спектакля, сюжет которого — рассказ о двух влюбленных людях, чья случайная встреча в кафе творит с главным героем ... 8.3 10 12
Торрент: Зарегистрирован [2018-08-25 09:52] · скачан: 618 раз
Статус: T временная
Размер: 1.37 GB
Как cкачать? Как скачать #Зановородиться через торрент | qTorrent


>> Регистрируемся здесь <<






Отзывы и комментарии о схеме читаем и пишем здесь: ---> Отзывы и комментарии о схеме

Новые благодарочки в телеграм довольных пользователей:
скриншот   скриншот   скриншот   скриншот   скриншот

25-08-2018 11:08 #Зановородиться Скачать торрент  

огонь)спасибо)pb.wtf



27-08-2018 04:02 #Зановородиться Скачать торрент  

Чумовой спектакль! Отличное совмещение кино и театра. Смотрел на одном дыхании! Музыка вначале возмутила, но когда узнал что исполнители Русская группа был приятно удивлен.pb.wtf



27-08-2018 21:26 #Зановородиться Скачать торрент  

но. на любителя, прошу заметитьpb.wtf



    Дорогой пользователь! Огромная просьба, поблагодарите релизера, оцените раздачу и оставьте свои комментарий, если Вы скачали #Зановородиться через торрент бесплатно! Внесите свою лепту в развитие PiratBit!
    Комментировать посты могут только пользователи прошедшие не сложную регистрацию
    Показать сообщения:    

    #Зановородиться через торрент
    Скачать бесплатно #Зановородиться
    #Зановородиться скачать торрент
    #Зановородиться смотреть онлайн
    Cкачать фильм #Зановородиться бесплатно
    #Зановородиться скачать торрент в хорошем качестве
    #Зановородиться смотреть онлайн бесплатно в хорошем качестве


    Вы не можете начинать темы
    Вы не можете отвечать на сообщения
    Вы не можете редактировать свои сообщения
    Вы не можете удалять свои сообщения
    Вы не можете голосовать в опросах
    Вы не можете прикреплять файлы к сообщениям
    Вы можете скачивать файлы