Ссылка на приватное зеркало всего за 1$. Внимание количество ограничено!!!

OK

1+1

iTunes

мы

OK

1

WEB-DLRip

Джокер

Пифагор

Ведьмак / The Witcher сериал

iTunes

ПШазам

ОК

Оно 2

iTunes

30
pack

Вам бонус

ВАЖНО

!!Акция!!

Alien_RageХит недели

RePack

Resident Evil 21

ИГРА 18+

pack

RePack

jed

RePack

fifa19

RePack

Assassins Creed: Odyssey

RePack

NEED FOR SPEED™ PAYBACK

4 сезон

9 сезон

Бесстыжие 9 сезон

Все сериалы

все сериалы на PB.wtf

RePack

FAR CRY 5
  

Смотри в Небо / Watch the Sky (Александр Мурильо) [2018 г., Фантастика, WEB-DLRip, Любительский (многоголосый)("Синема УС")] pb.wtf

Смотри в Небо через торрент pb.wtf

Размер: 1.31 GB | Добавлен: 1 год 5 мес. назад | Торрент скачан:128 раз
Скачать  

25-08-2018 10:22 Смотри в Небо Скачать торрент  

Смотри в Небо / Watch the Sky
Год выпуска: 2018
Страна: США / ROC Film Partners,MoonBalloon Entertainment
Жанр: Фантастика
Продолжительность: 01:27:26
Перевод: Любительский (многоголосый)("Синема УС")
Субтитры: Нет

Режиссер: Александр Мурильо

rating

В ролях: Люк Олбрайт, Николь Брукс, Джордж Калеодис, Крис Корбин, Рэнди Краудер, Эми Фаррелл, Крис Фрост, Карен Фурно, Эдрианн Грэйди, Карсон Керн

Описание: Пытаясь заснять собственное видео в открытом космосе, два брата неожиданно оказываются впутанными в историю заговора спецслужб, которые провели неудачный научный эксперимент, и теперь всему городу грозит вторжение инопланетян, а затем, и полное уничтожение человечества.

Доп. информация:

Качество: WEB-DLRip
Формат: AVI
Видео кодек: XviD
Аудио кодек: AC3
Видео: Xvid, 720x400, ~1748 Kbps
Аудио#1: AC3, 2 ch, 384 Kbps
скриншот   скриншот   скриншот   скриншот  

бщее
Полное имя : D:\CD\Смотри в Небо (Фантастика) WEB-DLRip-MVO\Watch_the_Sky_2O17_WEB-DLRip_MVO.avi
Формат : AVI
Формат/Информация : Audio Video Interleave
Размер файла : 1,31 Гбайт
Продолжительность : 1 ч. 27 м.
Общий поток : 2141 Кбит/сек
Программа кодирования : VirtualDubMod 1.5.10.2 (build 2540/release)
Библиотека кодирования : VirtualDub build 35576/release

Видео
Идентификатор : 0
Формат : MPEG-4 Visual
Профиль формата : Advanced Simple@L5
Настройки формата : BVOP2 / Custom Matrix
Параметр BVOP формата : 2
Параметр QPel формата : Нет
Параметр GMC формата : Без точки перехода
Параметр матрицы формата : Выборочная
Идентификатор кодека : XVID
Идентификатор кодека/Подсказка : XviD
Продолжительность : 1 ч. 27 м.
Битрейт : 1748 Кбит/сек
Ширина : 720 пикселей
Высота : 400 пикселей
Соотношение сторон : 16:9
Частота кадров : 23,976 (24000/1001) кадра/сек
Цветовое пространство : YUV
Субдискретизация насыщенности : 4:2:0
Битовая глубина : 8 бит
Тип развёртки : Прогрессивная
Метод сжатия : С потерями
Бит/(Пиксели*Кадры) : 0.253
Размер потока : 1,07 Гбайт (82%)
Библиотека кодирования : XviD 1.2.1 (UTC 2008-12-04)

Аудио
Идентификатор : 1
Формат : AC-3
Формат/Информация : Audio Coding 3
Идентификатор кодека : 2000
Продолжительность : 1 ч. 27 м.
Вид битрейта : Постоянный
Битрейт : 384 Кбит/сек
Каналы : 2 канала
Расположение каналов : Front: L R
Частота : 48,0 КГц
Частота кадров : 31,250 кадров/сек (1536 SPF)
Битовая глубина : 16 бит
Метод сжатия : С потерями
Размер потока : 240 Мбайт (18%)
Выравнивание : Разделение по промежуткам
Продолжительность промежутка : 42 мс. (1,00 видеокадр)
Время предзагрузки промежутка : 500 мс.
ServiceKind/String : Complete Main

pb.wtf



Скачать Смотри в Небо через торрент http://pic1.kartinco.top/images/11/pt626.jpg Скачать фильм Смотри в Небо через торрент бесплантно в хорошем качестве Описание: Пытаясь заснять собственное видео в открытом космосе, два брата неожиданно оказываются впутанными в историю заговора спецслужб, ... 8.5 10 6
Торрент: Зарегистрирован [2018-08-25 10:22] · скачан: 128 раз
Статус: T временная
Размер: 1.31 GB
Как cкачать? Как скачать Смотри в Небо через торрент | qTorrent

28-11-2019 20:33  

Отключить всю рекламу на сайте

25-08-2018 11:43 Смотри в Небо Скачать торрент  

ну почему? почему планетяне у америкосов всегда голые? космические перелеты придумали, а трусы нет? че это за фетиш такой? извращенцы блин..
рейтинг imdb 4.4
трейлер

pb.wtf



25-08-2018 14:31 Смотри в Небо Скачать торрент  

tamburetko писал(а):

ну почему? почему планетяне у америкосов всегда голые? космические перелеты придумали, а трусы нет? че это за фетиш такой? извращенцы блин..
рейтинг imdb 4.4
трейлер


А может это потому, что они более развитая цивилизация. И у них давно нет никаких предрассудков и моральных ограничений общества. Или они просто бесполые )) И плодятся методом "почкования" )). Вот им трусы и не нужны в принципе...pb.wtf



26-08-2018 12:16 Смотри в Небо Скачать торрент  

KriatonuS писал(а):

А может это потому, что они более развитая цивилизация. И у них давно нет никаких предрассудков и моральных ограничений общества. Или они просто бесполые )) И плодятся методом "почкования" )). Вот им трусы и не нужны в принципе...

мечта толерастов?! блииииин! так вот к чему весь этот бардак в гейропе с третьим полом, гомосеками трансамии феменами! нас к нашествию планетян готовят! уууу, хрен вам, морды инопланетские!))pb.wtf



26-08-2018 15:55 Смотри в Небо Скачать торрент  

Ну дак как фильм то ?pb.wtf



29-08-2018 09:55 Смотри в Небо Скачать торрент  

fanta86 писал(а):

Ну дак как фильм то ?

да ни о чем фильм. какой-то "рыхлый", другого слова не могу подобрать)) впечатление складывается, что на съемочной площадке произошёл примерно такой диалог:

режиссер: -стоп, снято!
кто-нить из актеров: -как снято?! мы ж нихрена ни одну тему до логического конца не довели?
режиссер: -бабло закончилось, все свободны

)))pb.wtf



    Дорогой пользователь! Огромная просьба, поблагодарите релизера, оцените раздачу и оставьте свои комментарий, если Вы скачали Смотри в Небо через торрент бесплатно! Внесите свою лепту в развитие PiratBit!
    Комментировать посты могут только пользователи прошедшие не сложную регистрацию
    Показать сообщения:    

    Смотри в Небо через торрент
    Скачать бесплатно Смотри в Небо
    Смотри в Небо скачать торрент
    Смотри в Небо смотреть онлайн
    Cкачать фильм Смотри в Небо бесплатно
    Смотри в Небо скачать торрент в хорошем качестве
    Смотри в Небо смотреть онлайн бесплатно в хорошем качестве


    Вы не можете начинать темы
    Вы не можете отвечать на сообщения
    Вы не можете редактировать свои сообщения
    Вы не можете удалять свои сообщения
    Вы не можете голосовать в опросах
    Вы не можете прикреплять файлы к сообщениям
    Вы можете скачивать файлы