Ссылка на приватное зеркало нашего сайта всего за 1$. Внимание количество ограничено!!!

2 сезон

iTunes

1 сезон

1

iTunes

iTunes

iTunes

1 сезон

RePack

30

ИГРА 18+

pack

ВАЖНО

!!Акция!!

Alien_RageХит недели

RePack

MK11
pack

Забери бонус

RePack

jed

!!Акция!!

Alien_Rage

RePack

fifa19

RePack

Assassins Creed: Odyssey

RePack

NEED FOR SPEED™ PAYBACK

4 сезон

9 сезон

Бесстыжие 9 сезон

Все сериалы

все сериалы на PB.wtf

RePack

FAR CRY 5
  

Верить и ждать / (Серия 1-4 из 4) / (Валерий Ибрагимов) [2018 г., Мелодрама, SATRip] pb.wtf

Верить и ждать через торрент pb.wtf

Размер: 2.78 GB | Добавлен: 2 года 2 мес. назад | Торрент скачан:88 раз
Скачать  

25-08-2018 13:36 Верить и ждать Скачать торрент  

Верить и ждать / (Серия 1-4 из 4) /
Год выпуска: 2018
Страна: Россия
Жанр: Мелодрама
Продолжительность: 4 х 00:46:00
Субтитры: Нет

Режиссер: Валерий Ибрагимов

В ролях: Евгения Осипова, Андрей Чернышов, Анатолий Руденко, Евгений Ефремов, Владимир Гладкий, Алексей Смолка, Евгений Лебедин

Описание: Марина – простая официантка, переехала в город из деревни после того, как семь лет назад погиб ее сын Артемка. Неизвестная женщина украла малыша прямо из коляски и сбросила в реку с моста. Марина пытается жить дальше, но никак не может смириться с произошедшим. И вот неожиданно ее находит бывшая соседка. Старуха решила покаяться перед смертью: ей заплатили, чтобы она помогла украсть ребенка Марины. Из-за нее малыш погиб. Но рассказать всю правду соседка не успевает, у нее останавливается сердце. Марина обещает себе во чтобы то ни стало разыскать женщину, убившую ее сына. Но у нее есть только одна зацепка - листок с адресом, который принесла с собой старуха.
Приехав в указанное место, убийцу Марина не находит. Там живет инженер Герман Власов. Он сочувствует Марине и решает помочь ей разобраться почему именно его адрес был указан в записке…

Качество: SATRip
Формат: AVI
Видео кодек: XviD
Аудио кодек: MP3
Видео: 720x400 (1.80:1), 25 fps, XviD build 50 ~1800 kbps
Аудио#1: 48 kHz, MPEG Layer 3, 2 ch, ~128.00 kbps
скриншот   скриншот   скриншот   скриншот  

General
Complete name : H:\релизы.торрентфайл\Verit.i.zhdat.SATRip.[www.riperam.org]\Verit.i.zhdat.01.SATRip.[www.riperam.org].avi
Format : AVI
Format/Info : Audio Video Interleave
File size : 697 MiB
Duration : 50mn 16s
Overall bit rate : 1 938 Kbps
Writing application : VirtualDubMod 1.5.10.3 | www.virtualdub-fr.org || (build 2550/release)
Writing library : VirtualDubMod build 2550/release

Video
ID : 0
Format : MPEG-4 Visual
Format profile : Advanced Simple@L5
Format settings, BVOP : 2
Format settings, QPel : No
Format settings, GMC : No warppoints
Format settings, Matrix : Default (H.263)
Codec ID : XVID
Codec ID/Hint : XviD
Duration : 50mn 16s
Bit rate : 1 800 Kbps
Width : 720 pixels
Height : 400 pixels
Display aspect ratio : 16:9
Frame rate : 25.000 fps
Color space : YUV
Chroma subsampling : 4:2:0
Bit depth : 8 bits
Scan type : Progressive
Compression mode : Lossy
Bits/(Pixel*Frame) : 0.250
Stream size : 647 MiB (93%)
Writing library : XviD 1.2.1 (UTC 2008-12-04)

Audio
ID : 1
Format : MPEG Audio
Format version : Version 1
Format profile : Layer 3
Mode : Joint stereo
Mode extension : MS Stereo
Codec ID : 55
Codec ID/Hint : MP3
Duration : 50mn 16s
Bit rate mode : Constant
Bit rate : 128 Kbps
Channel(s) : 2 channels
Sampling rate : 48.0 KHz
Compression mode : Lossy
Stream size : 46.0 MiB (7%)
Alignment : Aligned on interleaves
Interleave, duration : 40 ms (1.00 video frame)
Interleave, preload duration : 504 ms
Writing library : LAME3.99r
Encoding settings : -m j -V 4 -q 9 -lowpas

Внимание! Раздача ведётся путём добавления новых серий; при каждом добавлении создётся новый торрент. Чтобы начать докачку новой серии, пользователям необходимо сделать следующее:
  • Остановить скачивание,
  • Удалить старый торрент у себя из клиента (старые серии удалять не надо),
  • Скачать новый торрент и запустить его у себя в клиенте вместо старого, при этом указать клиенту путь в старую папку куда и должно происходить скачивание новых серий.
Ваш клиент при этом должен произвести хеширование (проверку) старой папки (если не производит сам - помогите ему сделать это), и будет докачивать только те серии которых у вас ещё нет. Старые серии при этом не удаляются, а продолжают раздаваться!

Eсли вы уже удалили старые серии, то предотвратить повторную закачку старых серий можно, отжав галочку в соответсвующих местах при запуске нового торрента. По возможности, желательно не удалять старые серии как можно дольше чтобы релизёр не столько продолжал раздавать старые серии, а смог сконцентрироваться на новых.
pb.wtf



Скачать Верить и ждать через торрент http://pic1.kartinco.top/images/11/3shsk.jpg Скачать фильм Верить и ждать через торрент бесплантно в хорошем качестве Описание: Марина – простая официантка, переехала в город из деревни после того, как семь лет назад погиб ее сын Артемка. Неизвестная ... 9.8 10 6
Торрент: Зарегистрирован [2018-08-25 15:07] · скачан: 88 раз
Статус: √ проверено
Размер: 2.78 GB
Как cкачать? Как скачать Верить и ждать через торрент | qTorrent

% Раздел Тема Автор DL S | L
Наши сериалы [ 10.29 GB ] Верить и ждать / Сезон: 1 / Серии: 1-2 из 2 [2018 HDTV 1080p] [Русский] R.G.Generalfilm White Smoke Скачать
1 | 0

28-11-2019 20:33  

Отключить всю рекламу на сайте

    Дорогой пользователь! Огромная просьба, поблагодарите релизера, оцените раздачу и оставьте свои комментарий, если Вы скачали Верить и ждать через торрент бесплатно! Внесите свою лепту в развитие PiratBit!
    Комментировать посты могут только пользователи прошедшие не сложную регистрацию
    Показать сообщения:    

    Верить и ждать через торрент
    Скачать бесплатно Верить и ждать
    Верить и ждать скачать торрент
    Верить и ждать смотреть онлайн
    Cкачать фильм Верить и ждать бесплатно
    Верить и ждать скачать торрент в хорошем качестве
    Верить и ждать смотреть онлайн бесплатно в хорошем качестве


    Вы не можете начинать темы
    Вы не можете отвечать на сообщения
    Вы не можете редактировать свои сообщения
    Вы не можете удалять свои сообщения
    Вы не можете голосовать в опросах
    Вы не можете прикреплять файлы к сообщениям
    Вы можете скачивать файлы