Marvel's Avengers Deluxe Edition (супер цена) 159р. Внимание количество ограничено!!!

2 сезон

iTunes

iTunes

1

iTunes

iTunes

iTunes

WEBRip

iTunes

30
pack

Новость дня

ВАЖНО

!!Акция!!

Alien_RageХит недели

RePack

Horizon Zero Dawn

ИГРА 18+

pack

RePack

jed

!!Акция!!

Alien_Rage

RePack

fifa19

RePack

Assassins Creed: Odyssey

RePack

NEED FOR SPEED™ PAYBACK

4 сезон

9 сезон

Бесстыжие 9 сезон

Все сериалы

все сериалы на PB.wtf

RePack

FAR CRY 5
  

Замкнутый / Withdrawn (Adrian Murray) [2017 г., Драма, WEB-DLRip, Любительский (многоголосый)] [Синема УС] pb.wtf

Замкнутый через торрент pb.wtf

Размер: 1.37 GB | Добавлен: 2 года назад | Торрент скачан:36 раз
Скачать  

25-08-2018 15:46 Замкнутый Скачать торрент  

Замкнутый / Withdrawn
Год выпуска: 2017
Страна: Канада
Жанр: Драма
Продолжительность: 01:17:37
Перевод: Любительский (многоголосый) | Синема УС
Субтитры: Отсутствуют

Режиссер: Adrian Murray

rating

В ролях: Дин Тардиоли, Adrian Murray, Молли Рейсман, Аарон Кеог, Келли Паоли, Greg Wasylyszn

Описание: Молодой барабанщик Аарон устал влачить нищенское существование, перебиваясь временными заработками. Однажды он находит кредитную карту и решает провернуть махинацию с ней. Он разрабатывает хитроумный план по обману ее владельца. Неужели Аарон наконец-то сможет осуществить свою заветную мечту и отправиться в Европу?

Качество: WEB-DLRip
Формат: AVI
Видео кодек: XviD
Аудио кодек: AC3
Видео: XviD, 720x400 , 23.9fps, 2131 Kbps
Аудио#1: AC3 , 2 ch , 48 kHz , 384 kbps
скриншот   скриншот   скриншот   скриншот  

Общее
Полное имя : D:Withdrawn.2O17.P.WEB-DLRip.14OOMB.avi
Формат : AVI
Формат/Информация : Audio Video Interleave
Размер файла : 1,37 Гбайт
Продолжительность : 1 ч. 17 м.
Общий поток : 2524 Кбит/сек
Программа кодирования : VirtualDubMod 1.5.10.2 (build 2540/release)
Библиотека кодирования : VirtualDubMod build 2540/release

Видео
Идентификатор : 0
Формат : MPEG-4 Visual
Профиль формата : Advanced Simple@L5
Параметр BVOP формата : 2
Параметр QPel формата : Нет
Параметр GMC формата : Без точки перехода
Параметр матрицы формата : Выборочная
Идентификатор кодека : XVID
Идентификатор кодека/Подсказка : XviD
Продолжительность : 1 ч. 17 м.
Битрейт : 2131 Кбит/сек
Ширина : 720 пикселей
Высота : 400 пикселей
Соотношение сторон : 16:9
Частота кадров : 23,976 кадра/сек
Цветовое пространство : YUV
Субдискретизация насыщенности : 4:2:0
Битовая глубина : 8 бит
Тип развёртки : Прогрессивная
Метод сжатия : С потерями
Бит/(Пиксели*Кадры) : 0.309
Размер потока : 1,16 Гбайт (84%)
Библиотека кодирования : XviD 1.2.1 (UTC 2008-12-04)

Аудио
Идентификатор : 1
Формат : AC-3
Формат/Информация : Audio Coding 3
Расширение режима : CM (complete main)
Параметр Endianness формата : Big
Идентификатор кодека : 2000
Продолжительность : 1 ч. 17 м.
Вид битрейта : Постоянный
Битрейт : 384 Кбит/сек
Каналы : 2 канала
Расположение каналов : Front: L R
Частота : 48,0 КГц
Битовая глубина : 16 бит
Метод сжатия : С потерями
Размер потока : 213 Мбайт (15%)
Выравнивание : Разделение по промежуткам
Продолжительность промежутка : 42 мс. (1,00 видеокадр)
Время предзагрузки промежутка : 500 мс.

pb.wtf



Скачать Замкнутый через торрент http://pic1.kartinco.top/images/11/jls49.jpg Скачать фильм Замкнутый через торрент бесплантно в хорошем качестве Описание: Молодой барабанщик Аарон устал влачить нищенское существование, перебиваясь временными заработками. Однажды он находит кредитную ... 10 10 1
Торрент: Зарегистрирован [2018-08-25 15:46] · скачан: 36 раз
Статус: T временная
Размер: 1.37 GB
Как cкачать? Как скачать Замкнутый через торрент | qTorrent

28-11-2019 20:33  

Отключить всю рекламу на сайте

    Дорогой пользователь! Огромная просьба, поблагодарите релизера, оцените раздачу и оставьте свои комментарий, если Вы скачали Замкнутый через торрент бесплатно! Внесите свою лепту в развитие PiratBit!
    Комментировать посты могут только пользователи прошедшие не сложную регистрацию
    Показать сообщения:    

    Замкнутый через торрент
    Скачать бесплатно Замкнутый
    Замкнутый скачать торрент
    Замкнутый смотреть онлайн
    Cкачать фильм Замкнутый бесплатно
    Замкнутый скачать торрент в хорошем качестве
    Замкнутый смотреть онлайн бесплатно в хорошем качестве


    Вы не можете начинать темы
    Вы не можете отвечать на сообщения
    Вы не можете редактировать свои сообщения
    Вы не можете удалять свои сообщения
    Вы не можете голосовать в опросах
    Вы не можете прикреплять файлы к сообщениям
    Вы можете скачивать файлы