новый адрес пиратбит piratbit
Мега распродажа FORZA HORIZON 4 ULTIMATE+ВСЕ DLC+ОНЛАЙН всего за 499р. 349 руб. (супер цена). Внимание количество ограничено!!!

iTunes

1+1

iTunes

мы

iTunes

1

iTunes

Чернобыль

iTunes

Ральф против интернета

Лицензия

ПШазам

Лицензия

Игра престолов

Лицензия

30
pack

ВАЖНО

!!Акция!!

Alien_RageХит недели

RePack

Resident Evil 21

ИГРА 18+

pack

RePack

Metro:Exodus

!!Акция!!

Alien_Rage

RePack

fifa19

RePack

Assassins Creed: Odyssey

RePack

NEED FOR SPEED™ PAYBACK

3 сезон

9 сезон

Бесстыжие 9 сезон

Все сериалы

все сериалы на PB.wtf

RePack

FAR CRY 5
Ребята, катастрофически не хватает 1900р. для оплаты серверов за Октябрь (всвязи с блокировками трафик упал в 3 раза), 1-2р., выручайте.
  

Решение о ликвидации (Александр Аравин) [2018, военный, боевик, драма, BDRip-AVC] [Лицензия] pb.wtf

Решение о ликвидации через торрент pb.wtf

Размер: 2.01 GB | Добавлен: 1 год 2 мес. назад | Торрент скачан:195 раз
Скачать  

25-08-2018 18:32 Решение о ликвидации Скачать торрент  

Решение о ликвидации
Год выпуска: 2018
Страна: Россия
Жанр: военный, боевик, драма
Продолжительность: 01:36:11
Перевод: Не требуется | Лицензия
Субтитры: русские (вшитые) на чеченскую речь

Режиссер: Александр Аравин



В ролях:

Игорь Петренко, Алексей Вертков, Аюб Цингиев, Алексей Шевченков, Дмитрий Парастаев, Иван Шахназаров, Дагун Омаев, Сослан Фидаров, Кирилл Краснов, Шамиль Алханов

Описание:

Особое задание спецгруппы ФСБ - ликвидация одержимого террориста Шамиля Базгаева. Охота продолжается уже долго, но жестокий лидер боевиков раз за разом ускользает. Однако, когда Базгаеву удается заполучить мощное оружие для осуществления своего самого страшного теракта, у оперативников больше нет права на ошибку. Для этих спецов преодоление себя, смертельный риск и подвиг - не что-то сверхъестественное, а каждодневный тяжелый труд. Но, кажется, даже для них эта операция - за пределами возможностей...

Качество: BDRip-AVC
Формат: MKV

Видео: MPEG-4 AVC, 1024x428, 2350 kbps, 23,976 fps
Аудио: русский, AC3, 5.1 ch, 48 kHz, 640 kbps | Лицензия
скриншот   скриншот   скриншот   скриншот   скриншот  

General
Уникальный идентификатор : 171198281642034227895937597624912258937 (0x80CB96F6DACBA00CBD3878768FA12779)
Полное имя : F:TorrentReshenieOlikvidaciiBDRipAVC.mkv
Формат : Matroska
Версия формата : Version 4 / Version 2
Размер файла : 2.01 GiB
Продолжительность : 1 h 36 min
Общий поток : 2 991 kb/s
Дата кодирования : UTC 2018-08-24 19:15:58
Программа кодирования : mkvmerge v9.5.0 ('Quiet Fire') 64bit
Библиотека кодирования : libebml v1.3.4 + libmatroska v1.4.5

Video
Идентификатор : 1
Формат : AVC
Формат/Информация : Advanced Video Codec
Профиль формата : High@L4.1
Настройки формата : CABAC / 10 Ref Frames
Параметр CABAC формата : Yes
Параметр RefFrames формата : 10 frames
Идентификатор кодека : V_MPEG4/ISO/AVC
Продолжительность : 1 h 36 min
Битрейт : 2 350 kb/s
Ширина : 1 024 pixels
Высота : 428 pixels
Соотношение сторон : 2.40:1
Режим частоты кадров : Constant
Частота кадров : 23.976 (24000/1001) FPS
Цветовое пространство : YUV
Субдискретизация насыщенности : 4:2:0
Битовая глубина : 8 bits
Тип развёртки : Progressive
Бит/(Пиксели*Кадры) : 0.224
Размер потока : 1.58 GiB (79%)
Библиотека кодирования : x264 core 155 r2901M 7d0ff22
Настройки программы : cabac=1 / ref=10 / deblock=1:-3:-3 / analyse=0x3:0x133 / me=umh / subme=11 / psy=1 / psy_rd=1.00:0.00 / mixed_ref=1 / me_range=48 / chroma_me=1 / trellis=2 / 8x8dct=1 / cqm=0 / deadzone=21,11 / fast_pskip=0 / chroma_qp_offset=-2 / threads=9 / lookahead_threads=2 / sliced_threads=0 / nr=0 / decimate=0 / interlaced=0 / bluray_compat=0 / constrained_intra=0 / bframes=10 / b_pyramid=2 / b_adapt=2 / b_bias=0 / direct=3 / weightb=1 / open_gop=0 / weightp=2 / keyint=240 / keyint_min=24 / scenecut=40 / intra_refresh=0 / rc_lookahead=120 / rc=2pass / mbtree=0 / bitrate=2350 / ratetol=1.0 / qcomp=0.70 / qpmin=0 / qpmax=69 / qpstep=4 / cplxblur=20.0 / qblur=0.5 / vbv_maxrate=50000 / vbv_bufsize=62500 / nal_hrd=none / filler=0 / ip_ratio=1.40 / pb_ratio=1.30 / aq=1:1.00
Default : Yes
Forced : No
Цветовой диапазон : Limited
Основные цвета : BT.709
Характеристики трансфера : BT.709
Коэффициенты матрицы : BT.709

Audio
Идентификатор : 2
Формат : AC-3
Формат/Информация : Audio Coding 3
Идентификатор кодека : A_AC3
Продолжительность : 1 h 36 min
Вид битрейта : Constant
Битрейт : 640 kb/s
Каналы : 6 channels
Расположение каналов : Front: L C R, Side: L R, LFE
Частота : 48.0 kHz
Частота кадров : 31.250 FPS (1536 SPF)
Битовая глубина : 16 bits
Метод сжатия : Lossy
Размер потока : 440 MiB (21%)
Язык : Russian
Default : Yes
Forced : No

Menu
00:00:00.000 : en:Chapter 1
00:10:03.686 : en:Chapter 2
00:18:43.539 : en:Chapter 3
00:27:10.587 : en:Chapter 4
00:35:30.294 : en:Chapter 5
00:44:10.356 : en:Chapter 6
00:53:00.343 : en:Chapter 7
01:03:31.182 : en:Chapter 8
01:13:11.345 : en:Chapter 9
01:22:21.353 : en:Chapter 10

pb.wtf



Скачать Решение о ликвидации через торрент http://i101.fastpic.ru/big/2018/0824/88/70c10bfccd082d0e37a2563f08691f88.jpeg Скачать фильм Решение о ликвидации через торрент бесплантно в хорошем качестве Описание: Особое задание спецгруппы ФСБ - ликвидация одержимого террориста Шамиля Базгаева. Охота продолжается уже долго, но жестокий лидер ... 9.1 10 10
Торрент: Зарегистрирован [2018-08-25 18:32] · скачан: 195 раз
Статус: √ проверено
Размер: 2.01 GB
Как cкачать? Как скачать Решение о ликвидации через торрент | qTorrent

% Раздел Тема Автор DL S | L
Наши фильмы (HD, WEB-DL 720p, 1080p) [ 8.18 GB ] Решение о ликвидации [2018 военный HDTV 1080i] [Расширенная ТВ-версия] bober100 Скачать
1 | 0
Наши новые фильмы 2018-2019 [ 2.06 GB ] Решение о ликвидации [2018 военный HDTVRip] [Расширенная ТВ-версия] bober100 Скачать
3 | 0
Наши новые фильмы 2018-2019 [ 2.04 GB ] Решение о ликвидации [2018 военный HDTVRip-AVC] [Расширенная ТВ-версия] bober100 Скачать
1 | 0
Наши фильмы (Blu-ray, BD-Remux, HDDVD) [ 19.37 GB ] Решение о ликвидации [2018 военный BD Remux 1080p] [] bober100 Скачать
2 | 0
Наши новые фильмы 2018-2019 [ 1.46 GB ] Решение о ликвидации [2018 военный BDRip] [Русский] [] Twi7ter Скачать
2 | 0
Наши новые фильмы 2018-2019 [ 745 MB ] Решение о ликвидации [2018 военный HDRip] [] bober100 Скачать
1 | 0
Наши фильмы (HD, WEB-DL 720p, 1080p) [ 3.78 GB ] Решение о ликвидации [2018 военный BDRip 720p] [] bober100 Скачать
1 | 0


>> Регистрируемся здесь <<






Отзывы и комментарии о схеме читаем и пишем здесь: ---> Отзывы и комментарии о схеме

Новые благодарочки в телеграм довольных пользователей:
скриншот   скриншот   скриншот   скриншот   скриншот
    Дорогой пользователь! Огромная просьба, поблагодарите релизера, оцените раздачу и оставьте свои комментарий, если Вы скачали Решение о ликвидации через торрент бесплатно! Внесите свою лепту в развитие PiratBit!
    Комментировать посты могут только пользователи прошедшие не сложную регистрацию
    Показать сообщения:    

    Решение о ликвидации через торрент
    Скачать бесплатно Решение о ликвидации
    Решение о ликвидации скачать торрент
    Решение о ликвидации смотреть онлайн
    Cкачать фильм Решение о ликвидации бесплатно
    Решение о ликвидации скачать торрент в хорошем качестве
    Решение о ликвидации смотреть онлайн бесплатно в хорошем качестве


    Вы не можете начинать темы
    Вы не можете отвечать на сообщения
    Вы не можете редактировать свои сообщения
    Вы не можете удалять свои сообщения
    Вы не можете голосовать в опросах
    Вы не можете прикреплять файлы к сообщениям
    Вы можете скачивать файлы