Ссылка на приватное зеркало нашего сайта всего за 1$. Внимание количество ограничено!!!

2 сезон

iTunes

1 сезон

1

2 сезон

2 сезон

iTunes

1 сезон

RePack

30

Ultimate

ВАЖНО

ИГРА 18+

pack

RePack

MK11
pack

Забери бонус

RePack

jed

!!Акция!!

Alien_Rage

RePack

fifa19

RePack

Assassins Creed: Odyssey

RePack

NEED FOR SPEED™ PAYBACK

4 сезон

9 сезон

Бесстыжие 9 сезон

Все сериалы

все сериалы на PB.wtf

RePack

FAR CRY 5
  

Истерия / Delirium (Дэннис Илиадис) [2018, Ужасы, триллер, BD Remux 1080p] DUB [Лицензия] pb.wtf

Истерия через торрент pb.wtf

Размер: 20.87 GB | Добавлен: 2 года 3 мес. назад | Торрент скачан:27 раз
Скачать  

25-08-2018 19:22 Истерия Скачать торрент  

Истерия / Delirium
Год выпуска: 2018
Страна: США
Жанр: Ужасы, триллер
Продолжительность: 01:35:59
Перевод: Дублированный | Лицензия
Субтитры: русские

Режиссер: Дэннис Илиадис

rating

В ролях:

Тофер Грейс (Tom), Дженезис Родригез (Lynn), Патришия Кларксон (Brody), Каллэн Мулвей (Alex), Робин Томас (Father), Дэйзи МакКрэкин (Mother), Келли Барксдэйл (Teenage girl), Браден Фицджералд (Young Tom), Коуди Салливан (Young Alex), Марти Эли Шварц (Frank)
Описание:

Бывший пациент клиники для душевнобольных возвращается в роскошный особняк, доставшийся ему после смерти родителей. В этом доме прошло все его детство, и с ним связано много ярких воспоминаний. Но со временем в доме начинают происходить странные и пугающие вещи. Или это все — в его голове?

Качество: BD Remux 1080
Формат: MKV

Видео: MPEG-4 AVC, 26194 КБ/с, 1920x1080, 24 кадр/с
Аудио#1: Русский (AC3, 6 ch, 640 Кбит/с)
Аудио#2: Русский (DTS-HD MA, 6 ch, 2786 Кбит/с)
Аудио#3: английский (DTS, 6 ch, 1509 Кбит/с)
скриншот  скриншот  скриншот  скриншот  скриншот  

Общее
Уникальный идентификатор : 228418491835698318002563302605793324247 (0xABD7CD23D1D3AF81885A315C92E4ECD7)
Полное имя : D:ЗагрузкиDelirium.2018.BDRemux.(1080p).OlLanDGroup.mkv
Формат : Matroska
Версия формата : Version 4 / Version 2
Размер файла : 20,9 Гбайт
Продолжительность : 1 ч. 35 м.
Режим общего битрейта : Переменный
Общий поток : 31,1 Мбит/сек
Название фильма : Истерия.2018.Сборка: ollan
Дата кодирования : UTC 2018-08-25 19:06:57
Программа кодирования : mkvmerge v6.5.0 ('Isn't she lovely') built on Oct 20 2013 12:50:05
Библиотека кодирования : libebml v1.3.0 + libmatroska v1.4.1
Обложка : Yes
Attachments : Cover - Delirium.png

Видео
Идентификатор : 1
Формат : AVC
Формат/Информация : Advanced Video Codec
Профиль формата : High@L4.1
Настройки формата : CABAC / 3 Ref Frames
Параметр CABAC формата : Да
Параметр ReFrames формата : 3 кадра
Идентификатор кодека : V_MPEG4/ISO/AVC
Продолжительность : 1 ч. 35 м.
Вид битрейта : Переменный
Максимальный битрейт : 35,0 Мбит/сек
Ширина : 1920 пикселей
Высота : 1080 пикселей
Соотношение сторон : 16:9
Режим частоты кадров : Постоянный
Частота кадров : 24,000 кадра/сек
Стандарт вещания : NTSC
Цветовое пространство : YUV
Субдискретизация насыщенности : 4:2:0
Битовая глубина : 8 бит
Тип развёртки : Прогрессивная
Язык : English
Default : Да
Forced : Нет
Цветовой диапазон : Limited
Основные цвета : BT.709
Характеристики трансфера : BT.709
Коэффициенты матрицы : BT.709

Аудио #1
Идентификатор : 2
Формат : AC-3
Формат/Информация : Audio Coding 3
Идентификатор кодека : A_AC3
Продолжительность : 1 ч. 35 м.
Вид битрейта : Постоянный
Битрейт : 640 Кбит/сек
Каналы : 6 каналов
Расположение каналов : Front: L C R, Side: L R, LFE
Частота : 48,0 КГц
Частота кадров : 31,250 кадров/сек (1536 SPF)
Битовая глубина : 16 бит
Метод сжатия : С потерями
Размер потока : 439 Мбайт (2%)
Заголовок : Дублированный (Лицензия)
Язык : Russian
Service kind : Complete Main
Default : Да
Forced : Нет

Аудио #2
Идентификатор : 3
Формат : DTS
Формат/Информация : Digital Theater Systems
Профиль формата : MA / Core
Идентификатор кодека : A_DTS
Продолжительность : 1 ч. 35 м.
Вид битрейта : Переменный / Постоянный
Битрейт : Неизвестно / 1509 Кбит/сек
Каналы : 6 каналов
Расположение каналов : Front: L C R, Side: L R, LFE
Частота : 48,0 КГц
Частота кадров : 93,750 кадра/сек (512 SPF)
Битовая глубина : 24 бит
Метод сжатия : Без потерь / Lossy
Заголовок : Дублированный (Лицензия)
Язык : Russian
Default : Нет
Forced : Нет

Аудио #3
Идентификатор : 4
Формат : DTS
Формат/Информация : Digital Theater Systems
Идентификатор кодека : A_DTS
Продолжительность : 1 ч. 35 м.
Вид битрейта : Постоянный
Битрейт : 1509 Кбит/сек
Каналы : 6 каналов
Расположение каналов : Front: L C R, Side: L R, LFE
Частота : 48,0 КГц
Частота кадров : 93,750 кадра/сек (512 SPF)
Битовая глубина : 24 бит
Метод сжатия : С потерями
Размер потока : 1,01 Гбайт (5%)
Язык : English
Default : Нет
Forced : Нет

Текст
Идентификатор : 5
Формат : UTF-8
Идентификатор кодека : S_TEXT/UTF8
Идентификатор кодека/Информация : UTF-8 Plain Text
Заголовок : Full
Язык : Russian
Default : Нет
Forced : Нет

Меню
00:00:00.000 : en:Chapter 01
00:01:11.916 : en:Chapter 02
00:10:59.375 : en:Chapter 03
00:21:42.708 : en:Chapter 04
00:34:06.625 : en:Chapter 05
00:44:26.041 : en:Chapter 06
00:55:01.250 : en:Chapter 07
01:08:27.458 : en:Chapter 08
01:21:39.416 : en:Chapter 09

pb.wtf



Скачать Истерия через торрент http://c.radikal.ru/c21/1808/7e/f66d30ea0a4c.jpg Скачать фильм Истерия через торрент бесплантно в хорошем качестве Описание: Бывший пациент клиники для душевнобольных возвращается в роскошный особняк, доставшийся ему после смерти родителей. В этом доме ... 10 10 6
Торрент: Зарегистрирован [2018-08-25 19:22] · скачан: 27 раз
Статус: √ проверено
Размер: 20.87 GB
Как cкачать? Как скачать Истерия через торрент | qTorrent

% Раздел Тема Автор DL S | L
Фильмы 2018 [DVDrip, WEB-DLRip, HDrip] (DUB, MVO) [ 1.46 GB ] Истерия / Delirium [2018 BDRip] - [] Twi7ter Скачать
2 | 0
Фильмы 2018 [DVDrip, WEB-DLRip, HDrip] (DUB, MVO) [ 1.46 GB ] Истерия / Delirium [2018 BDRip-AVC] DUB [] bober100 Скачать
1 | 0
R.G. Resident & PiratVoice - Фильмы, Видео [ 2.05 GB ] Истерия / Delirium [2018 HDRip от R.G. Resident] DUB [] -Lexx- Скачать
1 | 0
Фильмы [HD 720p, 1080p] (Хороший звук DUB, MVO) [ 5.89 GB ] Истерия / Delirium [2018 BDRip 720p] DUB [] bober100 Скачать
2 | 0
Фильмы [HD 720p, 1080p] (Хороший звук DUB, MVO) [ 9.58 GB ] Истерия / Delirium [2018 BDRip 1080p] DUB [] bober100 Скачать
1 | 0
Фильмы 2018 [DVDrip, WEB-DLRip, HDrip] (DUB, MVO) [ 1.46 GB ] Истерия / Delirium [2018 BDRip] DUB [] bober100 Скачать
1 | 0
Фильмы 2018 [DVDrip, WEB-DLRip, HDrip] (DUB, MVO) [ 1.46 GB ] Истерия / Delirium [2018 WEB-DLRip-AVC] bober100 Скачать
1 | 0

28-11-2019 20:33  

Отключить всю рекламу на сайте

    Дорогой пользователь! Огромная просьба, поблагодарите релизера, оцените раздачу и оставьте свои комментарий, если Вы скачали Истерия через торрент бесплатно! Внесите свою лепту в развитие PiratBit!
    Комментировать посты могут только пользователи прошедшие не сложную регистрацию
    Показать сообщения:    

    Истерия через торрент
    Скачать бесплатно Истерия
    Истерия скачать торрент
    Истерия смотреть онлайн
    Cкачать фильм Истерия бесплатно
    Истерия скачать торрент в хорошем качестве
    Истерия смотреть онлайн бесплатно в хорошем качестве


    Вы не можете начинать темы
    Вы не можете отвечать на сообщения
    Вы не можете редактировать свои сообщения
    Вы не можете удалять свои сообщения
    Вы не можете голосовать в опросах
    Вы не можете прикреплять файлы к сообщениям
    Вы можете скачивать файлы