2 сезон

iTunes

MVO

1

2 сезон

iTunes

iTunes

1 сезон

RePack

30

Ultimate

ВАЖНО

ИГРА 18+

pack

RePack

MK11
pack

Легкие деньги

RePack

jed

RePack

fifa19

RePack

RDR2

RePack

NEED FOR SPEED™ PAYBACK

4 сезон

9 сезон

Бесстыжие 9 сезон

Все сериалы

все сериалы на PB.wtf

RePack

FAR CRY 5

Anonymous, доброй ночи, мы не успеваем собрать деньги на оплату серверов за декабрь и январь, помогите нам пожалуйста в это трудное время. В качестве благодарности мы отключим Вам всю рекламу на сайте (укажите свой ник в строку Ваше имя)!

×
  
Magnet ссылка

Два билета в Венецию (Анна Кельчевская) [2011 г., Мелодрама, WEB-DLRip] pb.wtf

Два билета в Венецию через торрент pb.wtf

Размер: 1.46 GB | Добавлен: 2 года 4 мес. назад | Торрент скачан:11 раз
Скачать  

25-08-2018 21:04 Два билета в Венецию Скачать торрент  

Два билета в Венецию Год выпуска: 2011

Страна: Россия

Жанр: Мелодрама

Продолжительность: 01:30:20

Режиссер: Анна Кельчевская



В ролях: Анатолий Руденко, Юлия Кельчевская, Дмитрий Мазуров, Евгения Симонова, Наталия Лесниковская, Александр Песков, Иван Шабалтас, Ирина Чериченко, Юрий Шлыков, Татьяна Ташкова, Виктор Черепанов, Максим Драченин, Денис Константинов, Елена Антипова, Алиса Панченко

Описание: Лиза и Саша мечтают уехать в Венецию сразу после выпускных экзаменов в институте. У родителей девушки другие планы. Они хотят устроить дочь на престижную работу и знакомят ее за ужином с влиятельным другом семьи Леонидом Яковлевичем и его сыном Игорем. Лиза продолжает готовиться к поездке в Венецию, но вечера все чаще проводит с Игорем. Билеты уже куплены, и девушка собирает сумку в дорогу, однако звонок Игоря кардинально меняет ее планы… Проходит десять лет...

Качество: WEB-DLRip

Формат: AVI

Видео кодек: XviD

Аудио кодек: AC3

Видео: XviD, 2110 Кбит/с, 720x400

Аудио: Русский, AC3, 2 ch, 192 Кбит/с
Видео
Идентификатор : 0
Формат : xvid
Идентификатор кодека : xvid
Продолжительность : 1 ч. 30 м.
Битрейт : 2110 Кбит/сек
Ширина : 720 пикселей
Высота : 400 пикселей
Соотношение сторон : 16:9
Частота кадров : 25,000 кадров/сек
Тип развёртки : Прогрессивная
Бит/(Пиксели*Кадры) : 0.293
Размер потока : 1,33 Гбайт (91%)

Аудио
Идентификатор : 1
Формат : AC-3
Формат/Информация : Audio Coding 3
Идентификатор кодека : 2000
Продолжительность : 1 ч. 30 м.
Вид битрейта : Постоянный
Битрейт : 192 Кбит/сек
Каналы : 2 канала
Расположение каналов : Front: L R
Частота : 48,0 КГц
Частота кадров : 31,250 кадров/сек (1536 SPF)
Битовая глубина : 16 бит
Метод сжатия : С потерями
Размер потока : 124 Мбайт (8%)
Выравнивание : Соединение по промежуткам
Продолжительность промежутка : 32 мс. (0,80 видеокадр)
ServiceKind/String : Complete Main


pb.wtf



Скачать Два билета в Венецию через торрент http://pic1.kartinco.top/images/11/pzhyv.jpg Скачать фильм Два билета в Венецию через торрент бесплантно в хорошем качестве Описание: Лиза и Саша мечтают уехать в Венецию сразу после выпускных экзаменов в институте. У родителей девушки другие планы. Они хотят ... 10 10 2
Торрент: Зарегистрирован [2018-08-25 21:04] · скачан: 11 раз
Статус: √ проверено
Размер: 1.46 GB
Как cкачать? Как скачать Два билета в Венецию через торрент | UTorrent

28-11-2019 20:33  

Отключить всю рекламу на сайте

25-08-2018 21:14 Два билета в Венецию Скачать торрент  

Топик был перенесен из форума Оформление раздач (Кино, Видео и ТВ) в форум Наши фильмы 2010-2011


Скорпион1976pb.wtf



    Дорогой пользователь! Огромная просьба, поблагодарите релизера, оцените раздачу и оставьте свои комментарий, если Вы скачали Два билета в Венецию через торрент бесплатно! Внесите свою лепту в развитие PiratBit!
    Комментировать посты могут только пользователи прошедшие не сложную регистрацию
    Показать сообщения:    

    Два билета в Венецию через торрент
    Скачать бесплатно Два билета в Венецию
    Два билета в Венецию скачать торрент
    Два билета в Венецию смотреть онлайн
    Cкачать фильм Два билета в Венецию бесплатно
    Два билета в Венецию скачать торрент в хорошем качестве
    Два билета в Венецию смотреть онлайн бесплатно в хорошем качестве


    Вы не можете начинать темы
    Вы не можете отвечать на сообщения
    Вы не можете редактировать свои сообщения
    Вы не можете удалять свои сообщения
    Вы не можете голосовать в опросах
    Вы не можете прикреплять файлы к сообщениям
    Вы можете скачивать файлы