Ссылка на приватное зеркало нашего сайта всего за 1$. Внимание количество ограничено!!!

2 сезон

iTunes

1 сезон

1

2 сезон

2 сезон

iTunes

1 сезон

RePack

30

Новинка

ВАЖНО

ИГРА 18+

pack

RePack

MK11
pack

Забери бонус

RePack

jed

!!Акция!!

Alien_Rage

RePack

fifa19

RePack

Assassins Creed: Odyssey

RePack

NEED FOR SPEED™ PAYBACK

4 сезон

9 сезон

Бесстыжие 9 сезон

Все сериалы

все сериалы на PB.wtf

RePack

FAR CRY 5
  

Невинные / The Innocents / Сезон: 1 / Серии 1-8 из 8 (Фэррен Блэкберн, Джеми Донахью) [2018, Великобритания, Фантастика, WEBRip] MVO [BaibaKo] pb.wtf

Невинные через торрент pb.wtf

Размер: 4.67 GB | Добавлен: 2 года 3 мес. назад | Торрент скачан:85 раз
Скачать  

26-08-2018 02:32 Невинные Скачать торрент  

Невинные / The Innocents


  • Год выпуска: 2018
  • Страна: Великобритания
  • Жанр: Фантастика
  • Продолжительность: ~ 00:50:00 (Серия)
  • Перевод: Профессиональный многоголосый [BaibaKo]
  • Режиссер: Фэррен Блэкберн, Джеми Донахью
  • В ролях:
    Сорча Граундселл, Гай Пирс, Йоуханнес Хёйкьюр Йоуханнессон, Лаура Бирн, Сэм Хэзелдайн, Артур Хьюз, Надин Маршалл, Лизе Рисом Олсен, Ингунн Беате Ёйен



  • Быть подростком непросто, а если ты ещё и оборотень, взросление превращается в натуральный кошмар. 16-летняя Джун сбегает со своим бойфрендом из-под надзора строгого отца. Однако девушка не зря находилась под присмотром: она ещё не очень хорошо контролирует свои способности. Может быть, ей поможет профессор Халворсон…
  • Рейтинг:

    rating
  • Качество: WEBRip
  • Формат: :AVI
  • Видео кодек: XviD
  • Аудио кодек: MP3
  • Видео: 1497 Кбит/сек, 720*360 (2,000), в 24,000 кадра/сек, MPEG-4 Visual (XviD)
  • Аудио №1: русский 192 Кбит/сек, 48,0 КГц, 2 канала, MPEG Audio (MP3) |[BaibaKo]|
  • Релиз от: GEKADOL

    Внимание! Раздача ведётся путём добавления новых серий; при каждом добавлении создаётся новый торрент. Чтобы начать докачку новой серии, пользователям необходимо сделать следующее:
    (1) остановить скачивание,
    (2) удалить старый торрент у себя из клиента (старые серии удалять не надо),
    (3) скачать новый торрент и запустить его у себя в клиенте вместо старого, при этом указать клиенту путь в старую папку куда и должно происходить скачивание новых серий.
    Ваш клиент при этом должен произвести хеширование (проверку) старой папки (если не производит сам - помогите ему сделать это), и будет докачивать только те серии которых у вас ещё нет. Старые серии при этом не удаляются, а продолжают раздаваться!
    Eсли вы уже удалили старые серии, то предотвратить повторную закачку старых серий можно, отжав галочку в соответствующих местах при запуске нового торрента. По возможности, желательно не удалять старые серии как можно дольше чтобы релизёр не столько продолжал раздавать старые серии, а смог сконцентрироваться на новых.
    Общее
    Полное имя : G:\Невинные (The Innocents) S.1\The.Innocents.s01e02.WEBRip.XviD.Rus.BaibaKo.avi
    Формат : AVI
    Формат/Информация : Audio Video Interleave
    Размер файла : 632 Мбайт
    Продолжительность : 51 м. 56 с.
    Общий поток : 1701 Кбит/сек
    Программа кодирования : Lavf57.71.100

    Видео
    Идентификатор : 0
    Формат : MPEG-4 Visual
    Профиль формата : Advanced Simple@L5
    Настройки формата : BVOP1
    Параметр BVOP формата : 1
    Параметр QPel формата : Нет
    Параметр GMC формата : Без точки перехода
    Параметр матрицы формата : Default (H.263)
    Идентификатор кодека : XVID
    Идентификатор кодека/Подсказка : XviD
    Продолжительность : 51 м. 56 с.
    Битрейт : 1497 Кбит/сек
    Ширина : 720 пикселей
    Высота : 360 пикселей
    Соотношение сторон : 2,000
    Частота кадров : 24,000 кадра/сек
    Цветовое пространство : YUV
    Субдискретизация насыщенности : 4:2:0
    Битовая глубина : 8 бит
    Тип развёртки : Прогрессивная
    Метод сжатия : С потерями
    Бит/(Пиксели*Кадры) : 0.241
    Размер потока : 556 Мбайт (88%)
    Библиотека кодирования : XviD 67

    Аудио
    Идентификатор : 1
    Формат : MPEG Audio
    Версия формата : Version 1
    Профиль формата : Layer 3
    Настройки формата : Joint stereo / MS Stereo
    Идентификатор кодека : 55
    Идентификатор кодека/Подсказка : MP3
    Продолжительность : 51 м. 56 с.
    Вид битрейта : Постоянный
    Битрейт : 192 Кбит/сек
    Каналы : 2 канала
    Частота : 48,0 КГц
    Метод сжатия : С потерями
    Размер потока : 71,3 Мбайт (11%)
    Выравнивание : Соединение по промежуткам
    Продолжительность промежутка : 24 мс. (0,58 видеокадр)
    Библиотека кодирования : LAME3.100ЄЄЄҐ{&)»



    Скриншоты:
    скриншот   скриншот   скриншот   скриншот   скриншот   скриншот   скриншот  
    скриншот  

    Раздача ведётся путём добавления новых серий. Добавлена 3-8 серия (28.08.2018).Просьба перекачать торрент файл.

    pb.wtf



  • Скачать Невинные через торрент http://pic1.kartinco.top/images/11/e3g9y.jpg Скачать фильм Невинные через торрент бесплантно в хорошем качестве qw.png Быть подростком непросто, а если ты ещё и оборотень, взросление превращается в натуральный кошмар. 16-летняя Джун сбегает со своим ... 5.5 10 2
    Info! Золотая раздача, скачанное не засчитывается.
    Торрент: Зарегистрирован [2018-08-28 01:38] · скачан: 85 раз
    Статус: √ проверено
    Размер: 4.67 GB
    Как cкачать? Как скачать Невинные через торрент | qTorrent

    % Раздел Тема Автор DL S | L
    Зарубежные сериалы [ 5.46 GB ] Невинные / The Innocents / Сезон: 1 / Серии: 1-8 из 8 [2018 WEB-DLRip] MVO [LostFilm] bober100 Скачать
    1 | 0
    Зарубежные сериалы [ 52.61 GB ] Невинные / The Innocents / Сезон: 1 / Серии: 1-8 из 8 [2018 WEBRip 2160p] [HDR] 2xMVO [LostFilm Baibako] bober100 Скачать
    1 | 0
    Зарубежные сериалы [ 5.45 GB ] Невинные / The Innocents / Сезон: 1 / Серии: 1-8 из 8 [2018 WEBRip 720p] MVO [Jaskier] bober100 Скачать
    1 | 0
    Зарубежные сериалы [ 4.36 GB ] Невинные / The Innocents / Сезон: 1 / Серии: 1-8 из 8 [2018 WEBRip] MVO [Jaskier] bober100 Скачать
    1 | 0
    Зарубежные сериалы [ 7.63 GB ] Невинные / The Innocents / Сезон: 1 / Серии 1-8 из 8 [2018 WEBRip 720p] [DVO] killermax2013 Скачать
    1 | 0
    Зарубежные сериалы [ 13.99 GB ] Невинные / The Innocents / Сезон: 1 / Серии 1-8 из 8 [2018 WEB-DL 1080p] [MVO] killermax2013 Скачать
    1 | 0

    28-11-2019 20:33  

    Отключить всю рекламу на сайте

    31-08-2018 14:16 Невинные Скачать торрент  

    Джун сбегает со своим бойфрендом из-под надзора строгого отца. Однако девушка не зря находилась под присмотром: она ещё не очень хорошо контролирует свои способности. сожрала своего пацана чтоль?))pb.wtf



      Дорогой пользователь! Огромная просьба, поблагодарите релизера, оцените раздачу и оставьте свои комментарий, если Вы скачали Невинные через торрент бесплатно! Внесите свою лепту в развитие PiratBit!
      Комментировать посты могут только пользователи прошедшие не сложную регистрацию
      Показать сообщения:    

      Невинные через торрент
      Скачать бесплатно Невинные
      Невинные скачать торрент
      Невинные смотреть онлайн
      Cкачать фильм Невинные бесплатно
      Невинные скачать торрент в хорошем качестве
      Невинные смотреть онлайн бесплатно в хорошем качестве


      Вы не можете начинать темы
      Вы не можете отвечать на сообщения
      Вы не можете редактировать свои сообщения
      Вы не можете удалять свои сообщения
      Вы не можете голосовать в опросах
      Вы не можете прикреплять файлы к сообщениям
      Вы можете скачивать файлы