Ссылка на приватное зеркало нашего сайта всего за 1$. Внимание количество ограничено!!!

2 сезон

iTunes

1 сезон

1

iTunes

iTunes

iTunes

1 сезон

RePack

30

ИГРА 18+

pack

ВАЖНО

!!Акция!!

Alien_RageХит недели

RePack

MK11
pack

Забери бонус

RePack

jed

!!Акция!!

Alien_Rage

RePack

fifa19

RePack

Assassins Creed: Odyssey

RePack

NEED FOR SPEED™ PAYBACK

4 сезон

9 сезон

Бесстыжие 9 сезон

Все сериалы

все сериалы на PB.wtf

RePack

FAR CRY 5
  

Чернобыль. Зона отчуждения / Сезон: 1-2 / Серии: 1-16 (Андерс Банке, Павел Костомаров) [2015 - 2017, Триллер, WEB-DLRip] pb.wtf

Чернобыль. Зона отчуждения через торрент pb.wtf

Раздают: 2 [ 4 KB/s ]
Размер: 7.23 GB | Добавлен: 2 года 1 мес. назад | Торрент скачан:344 раза
Скачать  

26-08-2018 05:47 Чернобыль. Зона отчуждения Скачать торрент  

Чернобыль. Зона отчуждения
Год выпуска: 2014-2017

Страна: Россия

Жанр: Триллер

Сезон: 1-2

Серий: 16

Продолжительность: ~ 00:53:39 серия

Режиссер: Андерс Банке, Павел Костомаров



В ролях: Кристина Казинская, Анвар Халилулаев, Сергей Романович, Евгений Стычкин, Валерия Дмитриева, Константин Давыдов, Илья Щербинин, Николай Иванов, Дарья Лузина, Евгения Каверау

Описание: Пятеро молодых людей прыгают в старую «Волгу» и отправляются на поиски вора, часом ранее укравшего из квартиры родителей главного героя восемь миллионов рублей. Грабитель — обычный московский айтишник, — вместо того чтобы залечь на дно, тут же записывает видеоотчет, в котором сообщает, что финальная точка его путешествия — Чернобыльская АЭС и город Припять.

Качество: WEB-DLRip

Формат: AVI

Видео кодек: XviD

Аудио кодек: MP3

Видео: XviD, ~ 1301 Кбит/с, 720x400, 720x320(2-й сезон)

Аудио#1: Русский, MP3, 2 ch, 128 Кбит/с
Видео
Идентификатор : 0
Формат : MPEG-4 Visual
Профиль формата : Advanced Simple@L5
Настройки формата : BVOP1
Параметр BVOP формата : 1
Параметр QPel формата : Нет
Параметр GMC формата : Без точки перехода
Параметр матрицы формата : Default (MPEG)
Идентификатор кодека : XVID
Идентификатор кодека/Подсказка : XviD
Продолжительность : 53 м. 39 с.
Битрейт : 1301 Кбит/сек
Ширина : 720 пикселей
Высота : 400 пикселей
Соотношение сторон : 16:9
Частота кадров : 25,000 кадров/сек
Цветовое пространство : YUV
Субдискретизация насыщенности : 4:2:0
Битовая глубина : 8 бит
Тип развёртки : Прогрессивная
Метод сжатия : С потерями
Бит/(Пиксели*Кадры) : 0.181
Размер потока : 499 Мбайт (90%)
Библиотека кодирования : XviD 73

Аудио
Идентификатор : 1
Формат : MPEG Audio
Версия формата : Version 1
Профиль формата : Layer 3
Настройки формата : Joint stereo / MS Stereo
Идентификатор кодека : 55
Идентификатор кодека/Подсказка : MP3
Продолжительность : 53 м. 39 с.
Вид битрейта : Постоянный
Битрейт : 128 Кбит/сек
Каналы : 2 канала
Частота : 48,0 КГц
Частота кадров : 41,667 кадра/сек (1152 SPF)
Метод сжатия : С потерями
Размер потока : 49,1 Мбайт (9%)
Выравнивание : Соединение по промежуткам
Продолжительность промежутка : 40 мс. (1,00 видеокадр)
Время предзагрузки промежутка : 504 мс.
Библиотека кодирования : LAME3.99r
Настройки программы : -m j -V 4 -q 2 -lowpass 17 -b 128


pb.wtf



Скачать Чернобыль. Зона отчуждения через торрент http://pic1.kartinco.top/images/11/mll1j.jpg Скачать фильм Чернобыль. Зона отчуждения через торрент бесплантно в хорошем качестве Описание: Пятеро молодых людей прыгают в старую «Волгу» и отправляются на поиски вора, часом ранее укравшего из квартиры родителей главного ... 9.8 10 8
Торрент: Зарегистрирован [2018-08-26 05:47] · скачан: 344 раз
Статус: √ проверено
Размер: 7.23 GB
Как cкачать? Как скачать Чернобыль. Зона отчуждения через торрент | qTorrent

% Раздел Тема Автор DL S | L
Наши сериалы [ 7.53 GB ] Чернобыль. Зона отчуждения / Сезон: 1-2 из 2 / Серии: 1-16 из 16 [2014 2017 Россия WEB-DLRip-AVC WEBRip-AVC] sokol_ok Скачать
1 | 0
Наши сериалы [ 31.85 GB ] Чернобыль. Зона отчуждения / Сезон: 1-2 / Серии: 1-16 из 16 [2014-2017 Мистический HDTV 1080i] bober100 Скачать
2 | 0


Последний раз редактировалось: Леонид Ильич (2018-08-26 06:08), всего редактировалось 2 раз(а)

28-11-2019 20:33  

Отключить всю рекламу на сайте

27-08-2018 16:45 Чернобыль. Зона отчуждения Скачать торрент  

ждем 3 й сезонpb.wtf



17-09-2018 20:48 Чернобыль. Зона отчуждения Скачать торрент  

крутой сериалpb.wtf



31-05-2019 17:35 Чернобыль. Зона отчуждения Скачать торрент  

Божечки ты мой! Коментаторы выше, Вы шутники хреновы! Это такой треш, тв3 нервно курит в сторонке! Не тратьте время, если вам не 10 лет! Первый сезон столько решений тупых и несостыковок, аж противно смотреть. Второй - дикий набор, солянка из всех не плохих фильмов, но в куче - треш, как уже выше написал!pb.wtf



    Дорогой пользователь! Огромная просьба, поблагодарите релизера, оцените раздачу и оставьте свои комментарий, если Вы скачали Чернобыль. Зона отчуждения через торрент бесплатно! Внесите свою лепту в развитие PiratBit!
    Комментировать посты могут только пользователи прошедшие не сложную регистрацию
    Показать сообщения:    

    Чернобыль. Зона отчуждения через торрент
    Скачать бесплатно Чернобыль. Зона отчуждения
    Чернобыль. Зона отчуждения скачать торрент
    Чернобыль. Зона отчуждения смотреть онлайн
    Cкачать фильм Чернобыль. Зона отчуждения бесплатно
    Чернобыль. Зона отчуждения скачать торрент в хорошем качестве
    Чернобыль. Зона отчуждения смотреть онлайн бесплатно в хорошем качестве


    Вы не можете начинать темы
    Вы не можете отвечать на сообщения
    Вы не можете редактировать свои сообщения
    Вы не можете удалять свои сообщения
    Вы не можете голосовать в опросах
    Вы не можете прикреплять файлы к сообщениям
    Вы можете скачивать файлы