Всегда рабочее зеркало без VPN и Proxy просто перед .vidak.icu напиши любое слово или цифру, Пример http://ymb1.vidak.icu

MVO

MVO

1 сезон

1

1 сезон

iTunes

1 сезон

13

1 сезон

Deluxe

pack

Рекомендуем

Repack

30

ВАЖНО

RePack

MK11

RePack

jed

RePack

fifa19

RePack

RDR2

RePack

NEED FOR SPEED™ PAYBACK

Кинопоиск HD

6 сезон

 Острые козырьки 6 сезон

Все сериалы

все сериалы на PB.wtf

RePack

FAR CRY 5
  
Magnet ссылка

Хижина в лесу / The Cabin in the Woods (Дрю Годдард) [2011, ужасы, фэнтези, триллер, UHD BDRemux 2160p] DUB + 6xAVO + VO pb.wtf

Хижина в лесу через торрент pb.wtf

Размер: 75.53 GB | Добавлен: 3 года 11 мес. назад | Торрент скачан:42 раза
Смотреть онлайн Хижина в лесу | Скачать    Ребята, помогите собрать деньги на оплату серверов!!!

26-08-2018 08:34 Хижина в лесу Скачать торрент  

Хижина в лесу / The Cabin in the Woods«Думаете, знакомая история?»

Год выпуска: 2011
Страна: США
Жанр: ужасы, фэнтези, триллер, комедия
Продолжительность: 01:35:03
Перевод: Дублированный, авторский, любительский одноголосый
Субтитры: русские (R5, Дэн 107miller, romero007, notabenoid), английские (full, SDH)
Режиссер: Дрю Годдард
В ролях:

Кристен Коннолли, Крис Хемсворт, Анна Хатчисон, Фрэн Кранц, Джесси Уильямс, Ричард Дженкинс, Брэдли Уитфорд, Брайан Дж. Уайт, Эми Акер, Тим ДеЗам, Том Ленк, Дэн Пэйн
Описание:
Студент Курт говорит друзьям, что его кузен купил хижину в глухом лесу. Пятеро друзей решают уехать на выходные поближе к природе, подальше от городской суеты, чтобы оторваться по-настоящему. Когда они приезжают в хижину, то оказываются в полной изоляции от окружающего мира. Приключения начинаются с того момента, когда ребята обнаруживают в хижине дверь в подвал. Они спускаются в него, находят книгу и случайно читают заклинание, которое выпускает на волю полчища зомби. Но всё сложнее, чем кажется на первый взгляд, ведь за героями пристально наблюдают учёные...
Рейтинг:

MPAA: R - Лицам до 17 лет обязательно присутствие взрослого
Качество: UHD BDRemux 2160p
Формат: MKV
Видео: HEVC, HDR, 72774 Кбит/с, 3840x2160
Аудио 1: Russian DTS-HD Master Audio / 7.1 / 48 kHz / 2707 kbps / 16-bit (DTS Core: 5.1 / 48 kHz / 1509 kbps / 16-bit) |Dub, Blu-Ray|
Аудио 2: Russian DTS-HD Master Audio / 7.1 / 48 kHz / 5183 kbps / 24-bit (DTS Core: 5.1 / 48 kHz / 1509 kbps / 24-bit) |А. Гаврилов|
Аудио 3: Russian DTS-HD Master Audio / 7.1 / 48 kHz / 5189 kbps / 24-bit (DTS Core: 5.1 / 48 kHz / 1509 kbps / 24-bit) |Ю. Немахов|
Аудио 4: Russian DTS-HD Master Audio / 7.1 / 48 kHz / 5187 kbps / 24-bit (DTS Core: 5.1 / 48 kHz / 1509 kbps / 24-bit) |А. Карповский|
Аудио 5: Russian DTS-HD Master Audio / 7.1 / 48 kHz / 5178 kbps / 24-bit (DTS Core: 5.1 / 48 kHz / 1509 kbps / 24-bit) |zamez|
Аудио 6: Russian DTS-HD Master Audio / 7.1 / 48 kHz / 5179 kbps / 24-bit (DTS Core: 5.1 / 48 kHz / 1509 kbps / 24-bit) |В. Назаров|
Аудио 7: Russian DTS-HD Master Audio / 7.1 / 48 kHz / 5175 kbps / 24-bit (DTS Core: 5.1 / 48 kHz / 1509 kbps / 24-bit) |А. Матвеев|
Аудио 8: Russian DTS-HD Master Audio / 5.1 / 48 kHz / 2048 kbps / 16-bit (DTS Core: 5.1 / 48 kHz / 1509 kbps / 16-bit) |Д. Есарев|
Аудио 9: English Dolby Atmos/TrueHD Audio / 7.1-Atmos / 48 kHz / 5072 kbps / 24-bit |original|
Аудио 10: English AC3 Core: 5.1 / 48 kHz / 640 kbps |original|
Аудио 11: English AC3 / 2.0 / 48 kHz / 224 kbps / 16 bits |Commentary With Writer/Director Drew Goddard and Writer/Producer Joss Whedon|
Навигация по главам: есть
Общее
Уникальный идентификатор : 170261896391853771167981683300924013697 (0x80173F9B65ADBC245FBC04644C9E3C81)
Полное имя : H:\UHD\Хижина в лесу.2012.UHD.Blu-Ray.Remux.2160p.mkv
Формат : Matroska
Версия формата : Version 4 / Version 2
Размер файла : 75,5 Гбайт
Продолжительность : 1 ч. 35 м.
Режим общего битрейта : Переменный
Общий поток : 114 Мбит/сек
Дата кодирования : UTC 2018-08-12 16:38:19
Программа кодирования : mkvmerge v25.0.0 ('Prog Noir') 64-bit
Библиотека кодирования : libebml v1.3.6 + libmatroska v1.4.9
Attachments : poster.jpg

Видео
Идентификатор : 1
Формат : HEVC
Формат/Информация : High Efficiency Video Coding
Коммерческое название : HDR10
Профиль формата : Main [email protected]@High
Идентификатор кодека : V_MPEGH/ISO/HEVC
Продолжительность : 1 ч. 35 м.
Битрейт : 72,8 Мбит/сек
Ширина : 3840 пикселей
Высота : 2160 пикселей
Соотношение сторон : 16:9
Режим частоты кадров : Постоянный
Частота кадров : 23,976 (24000/1001) кадра/сек
Цветовое пространство : YUV
Субдискретизация насыщенности : 4:2:0 (Type 2)
Битовая глубина : 10 бит
Бит/(Пиксели*Кадры) : 0.366
Размер потока : 48,3 Гбайт (64%)
Default : Да
Forced : Нет
Цветовой диапазон : Limited
Основные цвета : BT.2020
Характеристики трансфера : PQ
Коэффициенты матрицы : BT.2020 non-constant
MasteringDisplay_ColorPrimaries : Display P3
MasteringDisplay_Luminance : min: 0.0050 cd/m2, max: 1000 cd/m2
MaxCLL : 1000 cd/m2
MaxFALL : 239 cd/m2

Аудио #1
Идентификатор : 2
Формат : DTS
Формат/Информация : Digital Theater Systems
Профиль формата : MA / Core
Идентификатор кодека : A_DTS
Продолжительность : 1 ч. 35 м.
Вид битрейта : Переменный / Постоянный
Битрейт : 2707 Кбит/сек / 1509 Кбит/сек
Каналы : 8 каналов / 6 каналов
Расположение каналов : Front: L C R, Side: L R, Back: L R, LFE / Front: L C R, Side: L R, LFE
Частота : 48,0 КГц
Частота кадров : 93,750 кадра/сек (512 SPF)
Битовая глубина : 16 бит
Метод сжатия : Без потерь / Lossy
Размер потока : 1,80 Гбайт (2%)
Заголовок : Dub, Blu-Ray
Язык : Russian
Default : Да
Forced : Нет

Аудио #2
Идентификатор : 3
Формат : DTS
Формат/Информация : Digital Theater Systems
Профиль формата : MA / Core
Идентификатор кодека : A_DTS
Продолжительность : 1 ч. 35 м.
Вид битрейта : Переменный / Постоянный
Битрейт : 5183 Кбит/сек / 1509 Кбит/сек
Каналы : 8 каналов / 6 каналов
Расположение каналов : Front: L C R, Side: L R, Back: L R, LFE / Front: L C R, Side: L R, LFE
Частота : 48,0 КГц
Частота кадров : 93,750 кадра/сек (512 SPF)
Битовая глубина : 24 бит
Метод сжатия : Без потерь / Lossy
Размер потока : 3,44 Гбайт (5%)
Заголовок : А. Гаврилов
Язык : Russian
Default : Нет
Forced : Нет

Аудио #3
Идентификатор : 4
Формат : DTS
Формат/Информация : Digital Theater Systems
Профиль формата : MA / Core
Идентификатор кодека : A_DTS
Продолжительность : 1 ч. 35 м.
Вид битрейта : Переменный / Постоянный
Битрейт : 5189 Кбит/сек / 1509 Кбит/сек
Каналы : 8 каналов / 6 каналов
Расположение каналов : Front: L C R, Side: L R, Back: L R, LFE / Front: L C R, Side: L R, LFE
Частота : 48,0 КГц
Частота кадров : 93,750 кадра/сек (512 SPF)
Битовая глубина : 24 бит
Метод сжатия : Без потерь / Lossy
Размер потока : 3,45 Гбайт (5%)
Заголовок : Ю. Немахов
Язык : Russian
Default : Нет
Forced : Нет

Аудио #4
Идентификатор : 5
Формат : DTS
Формат/Информация : Digital Theater Systems
Профиль формата : MA / Core
Идентификатор кодека : A_DTS
Продолжительность : 1 ч. 35 м.
Вид битрейта : Переменный / Постоянный
Битрейт : 5187 Кбит/сек / 1509 Кбит/сек
Каналы : 8 каналов / 6 каналов
Расположение каналов : Front: L C R, Side: L R, Back: L R, LFE / Front: L C R, Side: L R, LFE
Частота : 48,0 КГц
Частота кадров : 93,750 кадра/сек (512 SPF)
Битовая глубина : 24 бит
Метод сжатия : Без потерь / Lossy
Размер потока : 3,44 Гбайт (5%)
Заголовок : А. Карповский
Язык : Russian
Default : Нет
Forced : Нет

Аудио #5
Идентификатор : 6
Формат : DTS
Формат/Информация : Digital Theater Systems
Профиль формата : MA / Core
Идентификатор кодека : A_DTS
Продолжительность : 1 ч. 35 м.
Вид битрейта : Переменный / Постоянный
Битрейт : 5178 Кбит/сек / 1509 Кбит/сек
Каналы : 8 каналов / 6 каналов
Расположение каналов : Front: L C R, Side: L R, Back: L R, LFE / Front: L C R, Side: L R, LFE
Частота : 48,0 КГц
Частота кадров : 93,750 кадра/сек (512 SPF)
Битовая глубина : 24 бит
Метод сжатия : Без потерь / Lossy
Размер потока : 3,44 Гбайт (5%)
Заголовок : zamez
Язык : Russian
Default : Нет
Forced : Нет

Аудио #6
Идентификатор : 7
Формат : DTS
Формат/Информация : Digital Theater Systems
Профиль формата : MA / Core
Идентификатор кодека : A_DTS
Продолжительность : 1 ч. 35 м.
Вид битрейта : Переменный / Постоянный
Битрейт : 5179 Кбит/сек / 1509 Кбит/сек
Каналы : 8 каналов / 6 каналов
Расположение каналов : Front: L C R, Side: L R, Back: L R, LFE / Front: L C R, Side: L R, LFE
Частота : 48,0 КГц
Частота кадров : 93,750 кадра/сек (512 SPF)
Битовая глубина : 24 бит
Метод сжатия : Без потерь / Lossy
Размер потока : 3,44 Гбайт (5%)
Заголовок : В. Назаров
Язык : Russian
Default : Нет
Forced : Нет

Аудио #7
Идентификатор : 8
Формат : DTS
Формат/Информация : Digital Theater Systems
Профиль формата : MA / Core
Идентификатор кодека : A_DTS
Продолжительность : 1 ч. 35 м.
Вид битрейта : Переменный / Постоянный
Битрейт : 5175 Кбит/сек / 1509 Кбит/сек
Каналы : 8 каналов / 6 каналов
Расположение каналов : Front: L C R, Side: L R, Back: L R, LFE / Front: L C R, Side: L R, LFE
Частота : 48,0 КГц
Частота кадров : 93,750 кадра/сек (512 SPF)
Битовая глубина : 24 бит
Метод сжатия : Без потерь / Lossy
Размер потока : 3,44 Гбайт (5%)
Заголовок : А. Матвеев
Язык : Russian
Default : Нет
Forced : Нет

Аудио #8
Идентификатор : 9
Формат : DTS
Формат/Информация : Digital Theater Systems
Профиль формата : MA / Core
Идентификатор кодека : A_DTS
Продолжительность : 1 ч. 35 м.
Вид битрейта : Переменный / Постоянный
Битрейт : 2048 Кбит/сек / 1509 Кбит/сек
Каналы : 6 каналов
Расположение каналов : Front: L C R, Side: L R, LFE
Частота : 48,0 КГц
Частота кадров : 93,750 кадра/сек (512 SPF)
Битовая глубина : 16 бит
Метод сжатия : Без потерь / Lossy
Размер потока : 1,35 Гбайт (2%)
Заголовок : Д. Есарев
Язык : Russian
Default : Нет
Forced : Нет

Аудио #9
Идентификатор : 10
Формат : TrueHD
Профиль формата : TrueHD+Atmos / TrueHD
Идентификатор кодека : A_TRUEHD
Продолжительность : 1 ч. 35 м.
Вид битрейта : Переменный
Битрейт : 4432 Кбит/сек
Максимальный битрейт : 8064 Кбит/сек
Каналы : Object Based / 8 каналов
Расположение каналов : Object Based / Front: L C R, Side: L R, Back: L R, LFE
Частота : / 48,0 КГц
Частота кадров : 1200,000 кадров/сек (40 SPF)
Метод сжатия : Без потерь
Размер потока : 2,94 Гбайт (4%)
Язык : English
Default : Нет
Forced : Нет

Аудио #10
Идентификатор : 11
Формат : AC-3
Формат/Информация : Audio Coding 3
Идентификатор кодека : A_AC3
Продолжительность : 1 ч. 35 м.
Вид битрейта : Постоянный
Битрейт : 640 Кбит/сек
Каналы : 6 каналов
Расположение каналов : Front: L C R, Side: L R, LFE
Частота : 48,0 КГц
Частота кадров : 31,250 кадров/сек (1536 SPF)
Битовая глубина : 16 бит
Метод сжатия : С потерями
Размер потока : 435 Мбайт (1%)
Язык : English
ServiceKind/String : Complete Main
Default : Нет
Forced : Нет

Текст #1
Идентификатор : 12
Формат : UTF-8
Идентификатор кодека : S_TEXT/UTF8
Идентификатор кодека/Информация : UTF-8 Plain Text
Продолжительность : 1 ч. 29 м.
Битрейт : 74 бит/сек
ElementCount : 926
Размер потока : 49,2 Кбайт (0%)
Заголовок : R5
Язык : Russian
Default : Нет
Forced : Нет

Текст #2
Идентификатор : 13
Формат : UTF-8
Идентификатор кодека : S_TEXT/UTF8
Идентификатор кодека/Информация : UTF-8 Plain Text
Продолжительность : 1 ч. 28 м.
Битрейт : 71 бит/сек
ElementCount : 1026
Размер потока : 46,4 Кбайт (0%)
Заголовок : Дэн 107miller
Язык : Russian
Default : Нет
Forced : Нет

Текст #3
Идентификатор : 14
Формат : UTF-8
Идентификатор кодека : S_TEXT/UTF8
Идентификатор кодека/Информация : UTF-8 Plain Text
Продолжительность : 1 ч. 28 м.
Битрейт : 76 бит/сек
ElementCount : 999
Размер потока : 49,8 Кбайт (0%)
Заголовок : romero007
Язык : Russian
Default : Нет
Forced : Нет

Текст #4
Идентификатор : 15
Формат : UTF-8
Идентификатор кодека : S_TEXT/UTF8
Идентификатор кодека/Информация : UTF-8 Plain Text
Продолжительность : 1 ч. 28 м.
Битрейт : 76 бит/сек
ElementCount : 987
Размер потока : 49,9 Кбайт (0%)
Заголовок : notabenoid
Язык : Russian
Default : Нет
Forced : Нет

Текст #5
Идентификатор : 16
Формат : UTF-8
Идентификатор кодека : S_TEXT/UTF8
Идентификатор кодека/Информация : UTF-8 Plain Text
Продолжительность : 1 ч. 28 м.
Битрейт : 46 бит/сек
ElementCount : 984
Размер потока : 30,2 Кбайт (0%)
Заголовок : full
Язык : English
Default : Нет
Forced : Нет

Текст #6
Идентификатор : 17
Формат : UTF-8
Идентификатор кодека : S_TEXT/UTF8
Идентификатор кодека/Информация : UTF-8 Plain Text
Продолжительность : 1 ч. 28 м.
Битрейт : 50 бит/сек
ElementCount : 1108
Размер потока : 32,6 Кбайт (0%)
Заголовок : SDH
Язык : English
Default : Нет
Forced : Нет

Меню
00:00:00.000 : en:Weekend Away
00:05:42.425 : en:Nest Is Empty
00:12:31.709 : en:The Cabin
00:18:40.077 : en:Control
00:24:22.503 : en:I Dare You
00:29:27.140 : en:Read It
00:35:02.642 : en:Acting Strange
00:41:40.164 : en:Eternal Slumber
00:46:43.759 : en:Lockdown
00:50:57.805 : en:Black Room
00:54:43.822 : en:Perfect Record
01:06:49.130 : en:Going Down
01:12:50.116 : en:Something Bigger
01:16:45.976 : en:Code Black
01:21:34.014 : en:Ritual
01:26:59.506 : en:Fun Weekend
pb.wtf



Скачать Хижина в лесу через торрент https://d.radikal.ru/d34/1808/80/500f2f45af77.png Скачать, смотреть онлайн Хижина в лесу бесплантно в хорошем качестве Описание: Студент Курт говорит друзьям, что его кузен купил хижину в глухом лесу. Пятеро друзей решают уехать на выходные поближе к ... 10 10 5
Info! Золотая раздача, скачанное не засчитывается.
Торрент: Зарегистрирован [2018-08-26 08:34] · скачан: 42 раз
Статус: √ проверено
Размер: 75.53 GB
Как cкачать? Как скачать Хижина в лесу через торрент | UTorrent

% Раздел Тема Автор DL S | L
Ultra HD (UHD: 2K, 4K, 8K) — видео сверхвысокой чёткости [ 22.6 GB ] Хижина в лесу / The Cabin in the Woods [2012 UHD BDRip 2160p] DUB+VO+6xAVO+MVO bober100 Скачать
1 | 0
Ultra HD (UHD: 2K, 4K, 8K) — видео сверхвысокой чёткости [ 73.53 GB ] Хижина в лесу / The Cabin in the Woods [2012 UHD BDRemux 2160p] DUB+VO+5xAVO bober100 Скачать
1 | 0

28-11-2019 20:33  

Отключить вcю реклaмy на сайте

    Дорогой пользователь! Огромная просьба, поблагодарите релизера, оцените раздачу и оставьте свои комментарий, если Вы скачали Хижина в лесу через торрент бесплатно!
    Комментировать посты могут только пользователи прошедшие не сложную регистрацию
    Показать сообщения:    

    Хижина в лесу через торрент
    Скачать бесплатно Хижина в лесу
    Хижина в лесу скачать торрент
    Хижина в лесу смотреть онлайн
    Cкачать фильм Хижина в лесу бесплатно
    Хижина в лесу скачать торрент в хорошем качестве
    Хижина в лесу смотреть онлайн бесплатно в хорошем качестве


    Вы не можете начинать темы
    Вы не можете отвечать на сообщения
    Вы не можете редактировать свои сообщения
    Вы не можете удалять свои сообщения
    Вы не можете голосовать в опросах
    Вы не можете прикреплять файлы к сообщениям
    Вы можете скачивать файлы