новый адрес
Мега распродажа FORZA HORIZON 4 ULTIMATE+ВСЕ DLC+ОНЛАЙН всего за 499р. 349 руб. (супер цена). Внимание количество ограничено!!!

iTunes

1+1

iTunes

мы

iTunes

1

iTunes

Чернобыль

iTunes

Ральф против интернета

Лицензия

ПШазам

Лицензия

Оно 2

Лицензия

30
pack

ВАЖНО

!!Акция!!

Alien_RageХит недели

RePack

Resident Evil 21

ИГРА 18+

pack

RePack

Metro:Exodus

!!Акция!!

Alien_Rage

RePack

fifa19

RePack

Assassins Creed: Odyssey

RePack

NEED FOR SPEED™ PAYBACK

3 сезон

9 сезон

Бесстыжие 9 сезон

Все сериалы

все сериалы на PB.wtf

RePack

FAR CRY 5
Ребята, катастрофически не хватает 1900р. для оплаты серверов за Октябрь (всвязи с блокировками трафик упал в 3 раза), 1-2р., выручайте.
  

Три папы лучше, чем ни одного / Drei Väter sind besser als keiner (Тилль Францен) [2016 г., Комедия, HDTVRip, Любительский (многоголосый)] [Синема УС] pb.wtf

Три папы лучше, чем ни одного через торрент pb.wtf

Раздают: 1 [ 0 KB/s ]
Размер: 1.46 GB | Добавлен: 1 год 2 мес. назад | Торрент скачан:34 раза
Скачать  

26-08-2018 09:00 Три папы лучше, чем ни одного Скачать торрент  

Три папы лучше чем ни одного / Drei Väter sind besser als keiner
Год выпуска: 2016
Страна: Германия
Жанр: Комедия
Продолжительность: 01:27:17
Перевод: Любительский (многоголосый) | Синема УС
Субтитры: Отсутствуют

Режиссер: Тилль Францен

rating скриншот  

В ролях: Джулия Хартманн, Тобиаш Лихт, Свен Фрике, Sammy O Leary, Саша Гёпель, Annekathrin Pelke, Сюзанна фон Борсоди, Никола Кастнер, Mia Petersen Schwertfeger, Флориан Панцнер

Описание: Майке с детьми возвращается в родную деревню спустя одиннадцать лет. В ее планы входит знакомство детей с бабушкой и поиски отца старшего сына Джаспера. По скольку она встречалась с тремя бойфрендами сразу, каждый из них может претендовать на звание отца. Сложность в том, что у каждого из них уже есть семья, но Майке настроена решительно, уже ничто не в силах остановить ее..

Качество: HDTVRip
Формат: AVI
Видео кодек: XviD
Аудио кодек: AC3
Видео: XviD, 720x400 , 24.0fps, 1805 Kbps
Аудио#1: AC3 , 2 ch , 48 kHz , 192 kbps - русский
Аудио#2: AC3 , 6 ch , 48 kHz , 384 kbps - немецкий
скриншот   скриншот   скриншот   скриншот  

Общее
Полное имя : D:Drei Vaeter sind besser als keiner (2016)\Drei Vaeter sind besser als keiner 720p HDTV.avi
Формат : AVI
Формат/Информация : Audio Video Interleave
Профиль формата : OpenDML
Размер файла : 1,46 Гбайт
Продолжительность : 1 ч. 27 м.
Общий поток : 2394 Кбит/сек
Программа кодирования : Lavf57.71.100
Примечание : Rip by Basma4i&TorrNADO

Видео
Идентификатор : 0
Формат : MPEG-4 Visual
Профиль формата : Advanced Simple@L5
Параметр BVOP формата : Нет
Параметр QPel формата : Нет
Параметр GMC формата : Без точки перехода
Параметр матрицы формата : Default (H.263)
Идентификатор кодека : XVID
Идентификатор кодека/Подсказка : XviD
Продолжительность : 1 ч. 27 м.
Битрейт : 1805 Кбит/сек
Ширина : 720 пикселей
Высота : 400 пикселей
Соотношение сторон : 16:9
Частота кадров : 24,000 кадра/сек
Цветовое пространство : YUV
Субдискретизация насыщенности : 4:2:0
Битовая глубина : 8 бит
Тип развёртки : Прогрессивная
Метод сжатия : С потерями
Бит/(Пиксели*Кадры) : 0.261
Размер потока : 1,10 Гбайт (75%)
Библиотека кодирования : XviD 67

Аудио #1
Идентификатор : 1
Формат : AC-3
Формат/Информация : Audio Coding 3
Расширение режима : CM (complete main)
Параметр Endianness формата : Big
Идентификатор кодека : 2000
Продолжительность : 1 ч. 27 м.
Вид битрейта : Постоянный
Битрейт : 192 Кбит/сек
Каналы : 2 канала
Расположение каналов : Front: L R
Частота : 48,0 КГц
Битовая глубина : 16 бит
Метод сжатия : С потерями
Размер потока : 120 Мбайт (8%)
Выравнивание : Соединение по промежуткам
Продолжительность промежутка : 32 мс. (0,77 видеокадр)

Аудио #2
Идентификатор : 2
Формат : AC-3
Формат/Информация : Audio Coding 3
Расширение режима : CM (complete main)
Параметр Endianness формата : Big
Идентификатор кодека : 2000
Продолжительность : 1 ч. 27 м.
Вид битрейта : Постоянный
Битрейт : 384 Кбит/сек
Каналы : 6 каналов
Расположение каналов : Front: L C R, Side: L R, LFE
Частота : 48,0 КГц
Битовая глубина : 16 бит
Метод сжатия : С потерями
Размер потока : 239 Мбайт (16%)
Выравнивание : Соединение по промежуткам
Продолжительность промежутка : 32 мс. (0,77 видеокадр)

pb.wtf



Скачать Три папы лучше, чем ни одного через торрент http://pic1.kartinco.top/images/11/hz5xk.jpg Скачать фильм Три папы лучше, чем ни одного через торрент бесплантно в хорошем качестве Описание: Майке с детьми возвращается в родную деревню спустя одиннадцать лет. В ее планы входит знакомство детей с бабушкой и поиски отца ... 7 10 3
Торрент: Зарегистрирован [2018-08-26 09:00] · скачан: 34 раз
Статус: T временная
Размер: 1.46 GB
Как cкачать? Как скачать Три папы лучше, чем ни одного через торрент | qTorrent


>> Регистрируемся здесь <<






Отзывы и комментарии о схеме читаем и пишем здесь: ---> Отзывы и комментарии о схеме

Новые благодарочки в телеграм довольных пользователей:
скриншот   скриншот   скриншот   скриншот   скриншот

26-08-2018 11:46 Три папы лучше, чем ни одного Скачать торрент  

она что - не помнит, кто последний вынул что ли?pb.wtf



26-08-2018 12:09 Три папы лучше, чем ни одного Скачать торрент  

sergunka писал(а):

она что - не помнит, кто последний вынул что ли?

нет, она просто бл**ьpb.wtf



11-09-2018 00:03 Три папы лучше, чем ни одного Скачать торрент  

У них это нормально.pb.wtf



20-09-2018 14:25 Три папы лучше, чем ни одного Скачать торрент  

Название у фильма должно другое быть " Я у мамы, просто Бл@дь"pb.wtf



    Дорогой пользователь! Огромная просьба, поблагодарите релизера, оцените раздачу и оставьте свои комментарий, если Вы скачали Три папы лучше, чем ни одного через торрент бесплатно! Внесите свою лепту в развитие PiratBit!
    Комментировать посты могут только пользователи прошедшие не сложную регистрацию
    Показать сообщения:    

    Три папы лучше, чем ни одного через торрент
    Скачать бесплатно Три папы лучше, чем ни одного
    Три папы лучше, чем ни одного скачать торрент
    Три папы лучше, чем ни одного смотреть онлайн
    Cкачать фильм Три папы лучше, чем ни одного бесплатно
    Три папы лучше, чем ни одного скачать торрент в хорошем качестве
    Три папы лучше, чем ни одного смотреть онлайн бесплатно в хорошем качестве


    Вы не можете начинать темы
    Вы не можете отвечать на сообщения
    Вы не можете редактировать свои сообщения
    Вы не можете удалять свои сообщения
    Вы не можете голосовать в опросах
    Вы не можете прикреплять файлы к сообщениям
    Вы можете скачивать файлы