новый адрес
Ссылка на приватное зеркало всего за 1$. Внимание количество ограничено!!!

iTunes

1+1

iTunes

мы

WEB-DL

1

iTunes

Чернобыль

iTunes

Ральф против интернета

Лицензия

ПШазам

Лицензия

Оно 2

Лицензия

30
pack

Вам бонус

ВАЖНО

!!Акция!!

Alien_RageХит недели

RePack

Resident Evil 21

ИГРА 18+

pack

RePack

jed

!!Акция!!

Alien_Rage

RePack

fifa19

RePack

Assassins Creed: Odyssey

RePack

NEED FOR SPEED™ PAYBACK

3 сезон

9 сезон

Бесстыжие 9 сезон

Все сериалы

все сериалы на PB.wtf

RePack

FAR CRY 5
Ребята, катастрофически не хватает 1900р. для оплаты серверов за Октябрь (всвязи с блокировками трафик упал в 3 раза), 1-2р., выручайте.
  

Дружные мопсы / Puppy Dog Pals/Сезон 1, серий 26 из 26/ (Дон Маккиннон, Тревор Уолл, Стефани Арнетт) [2017 г., Компьютерная анимация, SATRip, Дубляж] pb.wtf

Дружные мопсы через торрент pb.wtf

Размер: 5.82 GB | Добавлен: 11 мес. назад | Торрент скачан:48 раз
Скачать  

26-08-2018 09:26 Дружные мопсы Скачать торрент  

Дружные мопсы / Puppy Dog Pals
Год выпуска: 2017
Страна: США
Жанр: Компьютерная анимация
Продолжительность: 26 х ~00:11:20
Перевод: Дубляж
Субтитры: Нет

Режиссер: Дон Маккиннон, Тревор Уолл, Стефани Арнетт

rating

В ролях: Иссак Райан Браун,Сэм Лаваньино,Харланд Уильямс,Джессика ДиЧикко....

Описание: Весёлым братьям-мопсам Бинго и Ролли никогда не сидится на месте. Каждый день они выдумывают новые игры и развлечения, путешествуют по всему миру, узнают много нового и интересного о культуре и традиция разных стран. Но как бы далеко щенки не отправились, они всегда возвращаются домой к своему любимому хозяину — изобретателю Бобу и лучшим друзьям: кошке Шипе и роботу-собаке по кличке Г. А. В.
: 01a-Пёс-поросёнок.avi
01b-Боб любит Мону.avi
02a Свободу Китам.avi
02b Соберём по частям.avi
03a Гав-Гав Гавайи.avi
03b ГАВ.avi
04a Ограбление тостов по-французски.avi
04b Сыграем в собакобол.avi
05a Пропавшие пирамиды.avi
05b Срочно доставка.avi
06a Мастерская собак.avi
06b Собачий холод.avi
07a Как я рад, что в городе парад.avi
07b Ваше щеночество.avi
08a Морские собачки.avi
08b Поводыри Боба.avi
09a Котёнок Шипы.avi
09b Попугай-хорошая птичка.avi
10a Удачный день Шипы.avi
10b Вперёд щенки вперёд!.avi
11a Бобры будьте добры.avi
11b Считаем овец.avi
12a Пока, бабочка.avi
12b Кресло в театре.avi
13a Палка-возвращалка.avi
13b Горшочек мопсов.avi
14a Капитан Ролли.avi
14b В поисках прохлады.avi
15a Пятнистый пазл.avi
15b Собачья рапсодия.avi
16a Легенда о Лохмачо.avi
16b Хвостатые няни.avi
17a Щенки встречают Рождество.avi
17b Оладьи Латкес на Хануку.avi
18a Близкие контакты собачьего рода.avi
18b Собачья задачка.avi
19a Собачье искусство.avi
19b Зима на носу.avi
20a Щенки освобождают Шипу.avi
20b За удачей в Ирландию.avi
21a Щенки - археологи.avi
21b Белки любят шумные проделки.avi
22a День рождения Бинго и Ролли.avi
22b Заводные танцоры.avi
23a Идём искать рубашку.avi
23b Великопёсный день с бабулей.avi
24a Бумеранг Боба.avi
24b Ловиcь, рыбка.avi
25a Ночь на ферме с тыквами.avi
25b Дух - охотник на Хэллоуин.avi
26a Санта для Боба.avi
26b Телохранители снеговика.avi
Качество: SATRip
Формат: AVI
Видео кодек: XviD
Аудио кодек: MP3
Видео: Xvid, 704x400, ~1200 kbps
Аудио#1: MP3, 2 ch, 192 kbps
скриншот   скриншот   скриншот   скриншот  

General
Complete name : Дружные мопсы\01a-Пёс-поросёнок.avi
Format : AVI
Format/Info : Audio Video Interleave
File size : 118 MiB
Duration : 11 min 45 s
Overall bit rate : 1 400 kb/s
Writing library : VirtualDub build 40464/release

Video
ID : 0
Format : MPEG-4 Visual
Format profile : Advanced Simple@L5
Format settings : BVOP2
Format settings, BVOP : 2
Format settings, QPel : No
Format settings, GMC : No warppoints
Format settings, Matrix : Default (H.263)
Muxing mode : Packed bitstream
Codec ID : XVID
Codec ID/Hint : XviD
Duration : 11 min 45 s
Bit rate : 1 199 kb/s
Width : 704 pixels
Height : 400 pixels
Display aspect ratio : 16:9
Frame rate : 25.000 FPS
Color space : YUV
Chroma subsampling : 4:2:0
Bit depth : 8 bits
Scan type : Progressive
Compression mode : Lossy
Bits/(Pixel*Frame) : 0.170
Stream size : 101 MiB (86%)
Writing library : XviD 73

Audio
ID : 1
Format : MPEG Audio
Format version : Version 1
Format profile : Layer 3
Format settings : Joint stereo
Mode : Joint stereo
Codec ID : 55
Codec ID/Hint : MP3
Duration : 11 min 45 s
Bit rate mode : Constant
Bit rate : 192 kb/s
Channel(s) : 2 channels
Sampling rate : 48.0 kHz
Compression mode : Lossy
Stream size : 16.1 MiB (14%)
Alignment : Split accross interleaves
Interleave, duration : 40 ms (1.00 video frame)
Interleave, preload duratio : 500 ms

Внимание! Раздача ведётся путём добавления новых серий; при каждом добавлении создётся новый торрент. Чтобы начать докачку новой серии, пользователям необходимо сделать следующее:
  • Остановить скачивание,
  • Удалить старый торрент у себя из клиента (старые серии удалять не надо),
  • Скачать новый торрент и запустить его у себя в клиенте вместо старого, при этом указать клиенту путь в старую папку куда и должно происходить скачивание новых серий.
Ваш клиент при этом должен произвести хеширование (проверку) старой папки (если не производит сам - помогите ему сделать это), и будет докачивать только те серии которых у вас ещё нет. Старые серии при этом не удаляются, а продолжают раздаваться!

Eсли вы уже удалили старые серии, то предотвратить повторную закачку старых серий можно, отжав галочку в соответсвующих местах при запуске нового торрента. По возможности, желательно не удалять старые серии как можно дольше чтобы релизёр не столько продолжал раздавать старые серии, а смог сконцентрироваться на новых.
pb.wtf



Скачать Дружные мопсы через торрент http://pic1.kartinco.top/images/11/6fugv.jpg Скачать фильм Дружные мопсы через торрент бесплантно в хорошем качестве Описание: Весёлым братьям-мопсам Бинго и Ролли никогда не сидится на месте. Каждый день они выдумывают новые игры и развлечения, ... 10 10 3
Торрент: Зарегистрирован [2018-12-31 09:18] · скачан: 48 раз
Статус: √ проверено
Размер: 5.82 GB
Как cкачать? Как скачать Дружные мопсы через торрент | qTorrent

28-11-2019 20:33  

Отключить всю рекламу на сайте

31-12-2018 09:19 Дружные мопсы Скачать торрент  

Добавленны 24-26 серии.Сезон завершен.pb.wtf



    Дорогой пользователь! Огромная просьба, поблагодарите релизера, оцените раздачу и оставьте свои комментарий, если Вы скачали Дружные мопсы через торрент бесплатно! Внесите свою лепту в развитие PiratBit!
    Комментировать посты могут только пользователи прошедшие не сложную регистрацию
    Показать сообщения:    

    Дружные мопсы через торрент
    Скачать бесплатно Дружные мопсы
    Дружные мопсы скачать торрент
    Дружные мопсы смотреть онлайн
    Cкачать фильм Дружные мопсы бесплатно
    Дружные мопсы скачать торрент в хорошем качестве
    Дружные мопсы смотреть онлайн бесплатно в хорошем качестве


    Вы не можете начинать темы
    Вы не можете отвечать на сообщения
    Вы не можете редактировать свои сообщения
    Вы не можете удалять свои сообщения
    Вы не можете голосовать в опросах
    Вы не можете прикреплять файлы к сообщениям
    Вы можете скачивать файлы