новый адрес пиратбит piratbit
Мега распродажа FORZA HORIZON 4 ULTIMATE+ВСЕ DLC+ОНЛАЙН всего за 499р. 349 руб. (супер цена). Внимание количество ограничено!!!

iTunes

1+1

iTunes

мы

iTunes

1

iTunes

Чернобыль

iTunes

Ральф против интернета

Лицензия

ПШазам

Лицензия

Игра престолов

Лицензия

30
pack

ВАЖНО

!!Акция!!

Alien_RageХит недели

RePack

Resident Evil 21

ИГРА 18+

pack

RePack

Metro:Exodus

!!Акция!!

Alien_Rage

RePack

fifa19

RePack

Assassins Creed: Odyssey

RePack

NEED FOR SPEED™ PAYBACK

3 сезон

9 сезон

Бесстыжие 9 сезон

Все сериалы

все сериалы на PB.wtf

RePack

FAR CRY 5
Ребята, катастрофически не хватает 1900р. для оплаты серверов за Октябрь (всвязи с блокировками трафик упал в 3 раза), 1-2р., выручайте.
  

Верные друзья (Михаил Калатозов) [1954 г., мелодрама, комедия, BDRip-AVC] [Полная реставрация изображения и звука от "Крупный План"] pb.wtf

Верные друзья через торрент pb.wtf

Размер: 2.18 GB | Добавлен: 1 год 2 мес. назад | Торрент скачан:65 раз
Скачать  

26-08-2018 11:16 Верные друзья Скачать торрент  

Верные друзья
Год выпуска: 1954
Страна: СССР
Жанр: Мелодрама, комедия
Продолжительность: 01:40:30

Режиссер: Михаил Калатозов

rating

В ролях: Василий Меркурьев, Борис Чирков, Александр Борисов (I), Алексей Грибов, Лилия Гриценко, Людмила Шагалова, Алексей Покровский, Юрий Саранцев, Георгий Георгиу, Николай Сморчков, Михаил Пуговкин, Григорий Белов, Георгий Гумилевский, Елена Вольская, Вера Бурлакова, Людмила Геника-Чиркова, Анатолий Дудоров, Маргарита Жарова, Константин Нассонов, Александр Лебедев (I), Ольга Маркина, Владимир Лепко, Елена Савицкая, Клавдия Козлёнкова, Лариса Матвеенко, Елизавета Уварова, Юрий Леонидов (II), Василий Корнуков, Иван Косых, Пётр Любешкин, Георгий Бударов, Иван Рыжов, Николай Парфёнов, Владимир Андреев

Описание: Когда-то давно на одной из московских окраин жили три товарища: Сашка – «Кошачий Барин», Борька – «Чижик» и Васька – «Индюк». Прошли годы. Чижик стал известным московским хирургом Чижовым, Сашка – профессором-животноводом Лапиным, Васька – академиком архитектуры Нестратовым, работающим на строительстве первых высоток столицы. Вспомнив данное когда-то друг другу обещание, верные друзья отправляются в плавание по реке на бревенчатом плоту. Для Лапина путешествие оказывается особенно счастливым: он встречает давно любимую и любящую его женщину.

Доп. информация: Полная реставрация изображения и звука от "Крупный План"

Качество: BDRip AVC
Формат: MKV
Видео кодек: MPEG-4 AVC
Аудио кодек: AC3
Видео: MPEG-4 AVC, 2650 Кбит/с, 792x576, 23.976 кадр/с
Аудиo: Русский, AC3, 6 ch, 448 Кбит/с
Видео
Идентификатор : 1
Формат : AVC
Формат/Информация : Advanced Video Codec
Профиль формата : High@L4.1
Настройки формата : CABAC / 9 Ref Frames
Параметр CABAC формата : Да
Параметр RefFrames формата : 9 кадров
Идентификатор кодека : V_MPEG4/ISO/AVC
Продолжительность : 1 ч. 40 м.
Битрейт : 2650 Кбит/сек
Ширина : 792 пикселя
Высота : 576 пикселей
Соотношение сторон : 1,375
Режим частоты кадров : Постоянный
Частота кадров : 23,976 (24000/1001) кадра/сек
Цветовое пространство : YUV
Субдискретизация насыщенности : 4:2:0
Битовая глубина : 8 бит
Тип развёртки : Прогрессивная
Бит/(Пиксели*Кадры) : 0.242
Размер потока : 1,82 Гбайт (84%)
Библиотека кодирования : x264 core 142 r2409+42 04be48a tMod [8-bit@4:2:0 X86]
Настройки программы : cabac=1 / ref=9 / deblock=1:-3:-2 / analyse=0x3:0x133 / me=umh / subme=11 / psy=1 / fade_compensate=0.00 / psy_rd=1.00:0.20 / mixed_ref=1 / me_range=32 / chroma_me=1 / trellis=2 / 8x8dct=1 / cqm=0 / deadzone=21,11 / fast_pskip=0 / chroma_qp_offset=-3 / threads=6 / lookahead_threads=1 / sliced_threads=0 / nr=0 / decimate=0 / interlaced=0 / bluray_compat=0 / constrained_intra=0 / fgo=0 / bframes=8 / b_pyramid=2 / b_adapt=2 / b_bias=0 / direct=3 / weightb=1 / open_gop=0 / weightp=2 / keyint=240 / keyint_min=23 / scenecut=40 / intra_refresh=0 / rc=2pass / mbtree=0 / bitrate=2650 / ratetol=1.0 / qcomp=0.60 / qpmin=0:0:0 / qpmax=69:69:69 / qpstep=4 / cplxblur=20.0 / qblur=0.5 / ip_ratio=1.40 / pb_ratio=1.30 / aq=2:1.00 / aq-sensitivity=10.00 / aq-factor=1.00:1.00:1.00 / aq2=0 / aq3=0
Язык : Russian
Default : Да
Forced : Нет

Аудио
Идентификатор : 2
Формат : AC-3
Формат/Информация : Audio Coding 3
Идентификатор кодека : A_AC3
Продолжительность : 1 ч. 40 м.
Вид битрейта : Постоянный
Битрейт : 448 Кбит/сек
Каналы : 6 каналов
Расположение каналов : Front: L C R, Side: L R, LFE
Частота : 48,0 КГц
Частота кадров : 31,250 кадров/сек (1536 SPF)
Битовая глубина : 16 бит
Метод сжатия : С потерями
Размер потока : 322 Мбайт (14%)
Язык : Russian
ServiceKind/String : Complete Main
Default : Нет
Forced : Нет


pb.wtf



Скачать Верные друзья через торрент http://pic1.kartinco.top/images/11/5evx5.jpg Скачать фильм Верные друзья через торрент бесплантно в хорошем качестве Описание: Когда-то давно на одной из московских окраин жили три товарища: Сашка – «Кошачий Барин», Борька – «Чижик» и Васька – «Индюк». ... 10 10 3
Торрент: Зарегистрирован [2018-08-26 11:16] · скачан: 65 раз
Статус: √ проверено
Размер: 2.18 GB
Как cкачать? Как скачать Верные друзья через торрент | qTorrent


>> Регистрируемся здесь <<






Отзывы и комментарии о схеме читаем и пишем здесь: ---> Отзывы и комментарии о схеме

Новые благодарочки в телеграм довольных пользователей:
скриншот   скриншот   скриншот   скриншот   скриншот

26-08-2018 14:36 Верные друзья Скачать торрент  

Топик был перенесен из форума Оформление раздач (Кино, Видео и ТВ) в форум Кино СССР


-Lexx-pb.wtf



    Дорогой пользователь! Огромная просьба, поблагодарите релизера, оцените раздачу и оставьте свои комментарий, если Вы скачали Верные друзья через торрент бесплатно! Внесите свою лепту в развитие PiratBit!
    Комментировать посты могут только пользователи прошедшие не сложную регистрацию
    Показать сообщения:    

    Верные друзья через торрент
    Скачать бесплатно Верные друзья
    Верные друзья скачать торрент
    Верные друзья смотреть онлайн
    Cкачать фильм Верные друзья бесплатно
    Верные друзья скачать торрент в хорошем качестве
    Верные друзья смотреть онлайн бесплатно в хорошем качестве


    Вы не можете начинать темы
    Вы не можете отвечать на сообщения
    Вы не можете редактировать свои сообщения
    Вы не можете удалять свои сообщения
    Вы не можете голосовать в опросах
    Вы не можете прикреплять файлы к сообщениям
    Вы можете скачивать файлы