Ссылка на приватное зеркало нашего сайта всего за 1$. Внимание количество ограничено!!!

2 сезон

iTunes

1 сезон

1

2 сезон

2 сезон

iTunes

1 сезон

RePack

30

Ultimate

ВАЖНО

ИГРА 18+

pack

RePack

MK11
pack

Забери бонус

RePack

jed

!!Акция!!

Alien_Rage

RePack

fifa19

RePack

Assassins Creed: Odyssey

RePack

NEED FOR SPEED™ PAYBACK

4 сезон

9 сезон

Бесстыжие 9 сезон

Все сериалы

все сериалы на PB.wtf

RePack

FAR CRY 5
  

Lizzy Borden - My Midnight Things (Japanese Edition) - 2018/ FLAC/ image +.cue/ lossless/ Heavy Metal pb.wtf

Lizzy Borden - My Midnight Things через торрент pb.wtf

Размер: 454 MB | Добавлен: 2 года 3 мес. назад | Торрент скачан:9 раз
Скачать  

26-08-2018 11:46 Lizzy Borden - My Midnight Things Скачать торрент  


Lizzy Borden - My Midnight Things (Japanese Edition)


Год издания: 2018
Страна: USA
Жанр: Heavy Metal
Продолжительность: 00:53:36
Лейбл издания: AVALON
Страна-выпуска диска: Japan
Номер по каталогу: MICP-11429
Формат: FLAC
Битрейт аудио: Lossless
Тип рипа: image +.cue
Наличие сканов в содержимом раздачи: да


01. My Midnight Things (4:21)
02. Obsessed With You (4:35)
03. Long May They Haunt Us (4:34)
04. The Scar Across My Heart (4:32)
05. A Stranger To Love (3:31)
06. The Perfect Poison (4:55)
07. Run Away With Me (4:26)
08. Our Love Is God (2:53)
09. My Midnight Things (Reprise) (3:49)
10. We Belong to the Shadows (3:39)
11. Long May They Haunt Us (Reprise) (Bonus Track) (4:46)
12. Silent Night (Bonus Track) (2:15)
13. Waiting In The Wings 2018 (Bonus Track) (5:21)

Код:

Exact Audio Copy V1.3 from 2. September 2016

EAC extraction logfile from 20. August 2018, 21:49

Lizzy Borden / My Midnight Things (Japan)

Used drive  : ATAPI   iHAS122   W   Adapter: 2  ID: 0

Read mode               : Secure
Utilize accurate stream : Yes
Defeat audio cache      : Yes
Make use of C2 pointers : No

Read offset correction                      : 48
Overread into Lead-In and Lead-Out          : No
Fill up missing offset samples with silence : Yes
Delete leading and trailing silent blocks   : No
Null samples used in CRC calculations       : Yes
Used interface                              : Installed external ASPI interface

Used output format              : User Defined Encoder
Selected bitrate                : 1024 kBit/s
Quality                         : High
Add ID3 tag                     : No
Command line compressor         : C:\Program Files\FLAC\flac.exe
Additional command line options : -V -8 -T "Date=%year%" -T "Genre=%genre%" -T"COMMENT=Ripped by  Ilijan [MeTaLMaDNeSS.TeaM]" -8 -V %source%

TOC of the extracted CD

     Track |   Start  |  Length  | Start sector | End sector
    ---------------------------------------------------------
        1  |  0:00.00 |  4:21.29 |         0    |    19603
        2  |  4:21.29 |  4:34.52 |     19604    |    40205
        3  |  8:56.06 |  4:33.70 |     40206    |    60750
        4  | 13:30.01 |  4:31.59 |     60751    |    81134
        5  | 18:01.60 |  3:31.32 |     81135    |    96991
        6  | 21:33.17 |  4:54.39 |     96992    |   119080
        7  | 26:27.56 |  4:26.37 |    119081    |   139067
        8  | 30:54.18 |  2:52.41 |    139068    |   152008
        9  | 33:46.59 |  3:48.44 |    152009    |   169152
       10  | 37:35.28 |  3:38.62 |    169153    |   185564
       11  | 41:14.15 |  4:46.13 |    185565    |   207027
       12  | 46:00.28 |  2:14.59 |    207028    |   217136
       13  | 48:15.12 |  5:20.44 |    217137    |   241180

Range status and errors

Selected range

     Filename D:\Vknish+Devastator+ungern666+deminbek=Swolo4 (Upload On Rutracker, DIE!!!)\Lizzy Borden - My Midnight Things (Japan).wav

     Peak level 98.9 %
     Extraction speed 3.7 X
     Range quality 99.9 %
     Test CRC 9521C44C
     Copy CRC 9521C44C
     Copy OK

No errors occurred

AccurateRip summary

Track  1  cannot be verified as accurate (confidence 1)  [DB19D66A], AccurateRip returned [ADEE86E6]  (AR v2)
Track  2  cannot be verified as accurate (confidence 1)  [1114ACF3], AccurateRip returned [56ECEED3]  (AR v2)
Track  3  cannot be verified as accurate (confidence 1)  [C2105FB9], AccurateRip returned [51CD8E99]  (AR v2)
Track  4  cannot be verified as accurate (confidence 1)  [CF5F794C], AccurateRip returned [B8DB3F22]  (AR v2)
Track  5  cannot be verified as accurate (confidence 1)  [C94C751C], AccurateRip returned [AD620AA0]  (AR v2)
Track  6  cannot be verified as accurate (confidence 1)  [47EF67EA], AccurateRip returned [279E1C19]  (AR v2)
Track  7  cannot be verified as accurate (confidence 1)  [27E0EC1F], AccurateRip returned [70492049]  (AR v2)
Track  8  cannot be verified as accurate (confidence 1)  [B5FB0D13], AccurateRip returned [84C3019D]  (AR v2)
Track  9  cannot be verified as accurate (confidence 1)  [0685C324], AccurateRip returned [0D026F69]  (AR v2)
Track 10  cannot be verified as accurate (confidence 1)  [155C8CD6], AccurateRip returned [4B3E809A]  (AR v2)
Track 11  cannot be verified as accurate (confidence 1)  [71C5B3B8], AccurateRip returned [5760493F]  (AR v2)
Track 12  cannot be verified as accurate (confidence 1)  [50C5C3D1], AccurateRip returned [288CD6E0]  (AR v2)
Track 13  cannot be verified as accurate (confidence 1)  [C5DAAD01], AccurateRip returned [A5B272BF]  (AR v2)

No tracks could be verified as accurate
You may have a different pressing from the one(s) in the database

End of status report

Код:

REM GENRE "Heavy Metal"
REM DATE 2018
REM DISCID CA0C8F0D
REM COMMENT "ExactAudioCopy v1.3"
PERFORMER "Lizzy Borden"
TITLE "My Midnight Things (Japan)"
FILE "Lizzy Borden - My Midnight Things (Japan).flac" WAVE
  TRACK 01 AUDIO
    TITLE "My Midnight Things"
    PERFORMER "Lizzy Borden"
    INDEX 01 00:00:00
  TRACK 02 AUDIO
    TITLE "Obsessed With You"
    PERFORMER "Lizzy Borden"
    INDEX 01 04:21:29
  TRACK 03 AUDIO
    TITLE "Long May They Haunt Us"
    PERFORMER "Lizzy Borden"
    INDEX 01 08:56:06
  TRACK 04 AUDIO
    TITLE "The Scar Across My Heart"
    PERFORMER "Lizzy Borden"
    INDEX 01 13:30:01
  TRACK 05 AUDIO
    TITLE "A Stranger To Love"
    PERFORMER "Lizzy Borden"
    INDEX 01 18:01:60
  TRACK 06 AUDIO
    TITLE "The Perfect Poison"
    PERFORMER "Lizzy Borden"
    INDEX 01 21:33:17
  TRACK 07 AUDIO
    TITLE "Run Away With Me"
    PERFORMER "Lizzy Borden"
    INDEX 01 26:27:56
  TRACK 08 AUDIO
    TITLE "Our Love Is God"
    PERFORMER "Lizzy Borden"
    INDEX 01 30:54:18
  TRACK 09 AUDIO
    TITLE "My Midnight Things (Reprise)"
    PERFORMER "Lizzy Borden"
    INDEX 01 33:46:59
  TRACK 10 AUDIO
    TITLE "We Belong to the Shadows"
    PERFORMER "Lizzy Borden"
    INDEX 01 37:35:28
  TRACK 11 AUDIO
    TITLE "Long May They Haunt Us (Reprise) (Bonus Track)"
    PERFORMER "Lizzy Borden"
    INDEX 01 41:14:15
  TRACK 12 AUDIO
    TITLE "Silent Night (Bonus Track)"
    PERFORMER "Lizzy Borden"
    INDEX 01 46:00:28
  TRACK 13 AUDIO
    TITLE " Waiting In The Wings 2018 (Bonus Track)"
    PERFORMER "Lizzy Borden"
    INDEX 01 48:15:12




pb.wtf



Скачать Lizzy Borden - My Midnight Things через торрент http://i102.fastpic.ru/big/2018/0826/89/a719712aa307f7291595cfba7b346589.png Скачать фильм Lizzy Borden - My Midnight Things через торрент бесплантно в хорошем качестве Трэклист My Midnight Things (4:21) Obsessed With You (4:35) Long May They Haunt Us (4:34) The Scar Across My Heart ... 10 10 1
Торрент: Зарегистрирован [2018-08-26 11:46] · скачан: 9 раз
Статус: √ проверено
Размер: 454 MB
Как cкачать? Как скачать Lizzy Borden - My Midnight Things через торрент | qTorrent

28-11-2019 20:33  

Отключить всю рекламу на сайте

    Дорогой пользователь! Огромная просьба, поблагодарите релизера, оцените раздачу и оставьте свои комментарий, если Вы скачали Lizzy Borden - My Midnight Things через торрент бесплатно! Внесите свою лепту в развитие PiratBit!
    Комментировать посты могут только пользователи прошедшие не сложную регистрацию
    Показать сообщения:    

    Lizzy Borden - My Midnight Things через торрент
    Скачать бесплатно Lizzy Borden - My Midnight Things
    Lizzy Borden - My Midnight Things скачать торрент
    Lizzy Borden - My Midnight Things смотреть онлайн
    Cкачать фильм Lizzy Borden - My Midnight Things бесплатно
    Lizzy Borden - My Midnight Things скачать торрент в хорошем качестве
    Lizzy Borden - My Midnight Things смотреть онлайн бесплатно в хорошем качестве


    Вы не можете начинать темы
    Вы не можете отвечать на сообщения
    Вы не можете редактировать свои сообщения
    Вы не можете удалять свои сообщения
    Вы не можете голосовать в опросах
    Вы не можете прикреплять файлы к сообщениям
    Вы можете скачивать файлы