Ссылка на приватное зеркало всего за 1$. Внимание количество ограничено!!!

OK

1+1

iTunes

мы

OK

1

WEB-DLRip

Джокер

Пифагор

Ведьмак / The Witcher сериал

iTunes

ПШазам

ОК

Оно 2

iTunes

30
pack

Вам бонус

ВАЖНО

!!Акция!!

Alien_RageХит недели

RePack

Resident Evil 21

ИГРА 18+

pack

RePack

jed

RePack

fifa19

RePack

Assassins Creed: Odyssey

RePack

NEED FOR SPEED™ PAYBACK

4 сезон

9 сезон

Бесстыжие 9 сезон

Все сериалы

все сериалы на PB.wtf

RePack

FAR CRY 5
  

Что тебе нужно для жизни / What Keeps You Alive (Колин Минихан) [2018 г., триллер, WEB-DLRip] MVO [Синема УС] pb.wtf

Что тебе нужно для жизни через торрент pb.wtf

Размер: 1.37 GB | Добавлен: 1 год 5 мес. назад | Торрент скачан:114 раз
Скачать  

26-08-2018 14:59 Что тебе нужно для жизни Скачать торрент  

Что тебе нужно для жизни / What Keeps You Alive Год выпуска: 2018
Страна: Канада
Жанр: Триллер
Продолжительность: 01:43:03
Перевод: Любительский (многоголосый) ["Синема УС"]
Субтитры: Нет

Режиссер: Колин Минихан

rating

В ролях: Ханна Эмили Андерсон, Бриттани Аллен, Марта МакАйзек, Джои Клейн, Шарлотта Линдси Мэррон

Описание: Величественные горы, тихое озеро и ядовитые предательства захлестнули молодых девушек во время их первой годовщины.

Доп. информация: Присутствуют вставки голосовой и текстовой рекламы!

Качество: WEB-DLRip
Формат: AVI
Видео кодек: XviD
Аудио кодек: AC3
Видео: XviD, 1697 Кбит/с, 720x304
Аудио#1: Русский (AC3, 2 ch, 192 Кбит/с)

Видео
Идентификатор : 0
Формат : MPEG-4 Visual
Профиль формата : Advanced Simple@L5
Настройки формата : BVOP2 / Custom Matrix
Параметр BVOP формата : 2
Параметр QPel формата : Нет
Параметр GMC формата : Без точки перехода
Параметр матрицы формата : Выборочная
Идентификатор кодека : XVID
Идентификатор кодека/Подсказка : XviD
Продолжительность : 1 ч. 43 м.
Битрейт : 1698 Кбит/сек
Ширина : 720 пикселей
Высота : 304 пикселя
Соотношение сторон : 2,35:1
Частота кадров : 23,976 (24000/1001) кадра/сек
Цветовое пространство : YUV
Субдискретизация насыщенности : 4:2:0
Битовая глубина : 8 бит
Тип развёртки : Прогрессивная
Метод сжатия : С потерями
Бит/(Пиксели*Кадры) : 0.324
Размер потока : 1,22 Гбайт (89%)
Библиотека кодирования : XviD 1.2.1 (UTC 2008-12-04)

Аудио
Идентификатор : 1
Формат : AC-3
Формат/Информация : Audio Coding 3
Идентификатор кодека : 2000
Продолжительность : 1 ч. 43 м.
Вид битрейта : Постоянный
Битрейт : 192 Кбит/сек
Каналы : 2 канала
Расположение каналов : Front: L R
Частота : 48,0 КГц
Частота кадров : 31,250 кадров/сек (1536 SPF)
Битовая глубина : 16 бит
Метод сжатия : С потерями
Размер потока : 142 Мбайт (10%)
Выравнивание : Разделение по промежуткам
Продолжительность промежутка : 42 мс. (1,00 видеокадр)
Время предзагрузки промежутка : 500 мс.
ServiceKind/String : Complete Main

pb.wtf



Скачать Что тебе нужно для жизни через торрент http://pic1.kartinco.top/images/11/8o7n2.jpg Скачать фильм Что тебе нужно для жизни через торрент бесплантно в хорошем качестве Описание: Величественные горы, тихое озеро и ядовитые предательства захлестнули молодых девушек во время их первой годовщины.Доп. ... 10 10 5
Торрент: Зарегистрирован [2018-08-26 14:59] · скачан: 114 раз
Статус: T временная
Размер: 1.37 GB
Как cкачать? Как скачать Что тебе нужно для жизни через торрент | qTorrent

28-11-2019 20:33  

Отключить всю рекламу на сайте

26-08-2018 15:31 Что тебе нужно для жизни Скачать торрент  

    Дорогой пользователь! Огромная просьба, поблагодарите релизера, оцените раздачу и оставьте свои комментарий, если Вы скачали Что тебе нужно для жизни через торрент бесплатно! Внесите свою лепту в развитие PiratBit!
    Комментировать посты могут только пользователи прошедшие не сложную регистрацию
    Показать сообщения:    

    Что тебе нужно для жизни через торрент
    Скачать бесплатно Что тебе нужно для жизни
    Что тебе нужно для жизни скачать торрент
    Что тебе нужно для жизни смотреть онлайн
    Cкачать фильм Что тебе нужно для жизни бесплатно
    Что тебе нужно для жизни скачать торрент в хорошем качестве
    Что тебе нужно для жизни смотреть онлайн бесплатно в хорошем качестве


    Вы не можете начинать темы
    Вы не можете отвечать на сообщения
    Вы не можете редактировать свои сообщения
    Вы не можете удалять свои сообщения
    Вы не можете голосовать в опросах
    Вы не можете прикреплять файлы к сообщениям
    Вы можете скачивать файлы