Ссылка на приватное зеркало нашего сайта всего за 1$. Внимание количество ограничено!!!

2 сезон

iTunes

1 сезон

1

iTunes

iTunes

iTunes

1 сезон

RePack

30

ИГРА 18+

pack

ВАЖНО

!!Акция!!

Alien_RageХит недели

RePack

MK11
pack

Забери бонус

RePack

jed

!!Акция!!

Alien_Rage

RePack

fifa19

RePack

Assassins Creed: Odyssey

RePack

NEED FOR SPEED™ PAYBACK

4 сезон

9 сезон

Бесстыжие 9 сезон

Все сериалы

все сериалы на PB.wtf

RePack

FAR CRY 5
  

Верить и ждать / Сезон: 1 / Серии: 1-2 из 2 (Валерий Ибрагимов) [2018, мелодрама, HDTV 1080p] Не требуется [Русский] R.G.Generalfilm pb.wtf

Верить и ждать через торрент pb.wtf

Размер: 10.29 GB | Добавлен: 2 года 1 мес. назад | Торрент скачан:25 раз
Скачать  

26-08-2018 18:59 Верить и ждать Скачать торрент  

Верить и ждать


Год выпуска: 2018
Страна: Россия
Жанр: мелодрама
Продолжительность: 01:41:59
Перевод: Не требуется [Русский]
Режиссер: Валерий Ибрагимов
В ролях:

Евгения Осипова, Андрей Чернышов, Анатолий Руденко, Евгений Ефремов, Владимир Гладкий, Алексей Смолка, Евгений Лебедин
Описание:
Марина - простая официантка, переехавшая в город из деревни, после того как семь лет назад погиб ее сын Артём. Неизвестная женщина украла малыша прямо из коляски и сбросила в реку с моста. Марина пытается жить дальше, но никак не может смириться с произошедшим. Неожиданно её находит бывшая соседка. Старуха решила покаяться перед смертью: ей заплатили, чтобы она помогла украсть ребенка Марины. Из-за неё малыш погиб. Но рассказать всю правду соседка не успевает - у неё останавливается сердце. Марина обещает себе во чтобы то ни стало разыскать женщину, убившую ее сына. Но у нее есть только одна зацепка - листок с адресом, который принесла с собой старуха. Приехав в указанное место, убийцу Марина не находит. Там живет инженер Герман Власов, который сочувствует Марине и решает помочь ей разобраться, почему именно его адрес был указан в записке...

Качество: HDTV 1080p Запись с
Формат: MKV
Видео кодек: AVC
Аудио кодек: AC3
Видео: AVC, 1920x1080 (16:9), 7050 kbps, 25 fps, 0,136 bpp
Аудио: AC3 / 2.0 / 48 kHz / 192 kbps /
General
Unique ID : 188399722307494470399507896907131148447 (0x8DBC7777B9DD96AD8F542369D0AE589F)
Complete name : E:\Запись с тв\Verit i zhdat 2018.HDTV 1080p.R.G.Generalfilm\Verit i zhdat.s01.e01.2018.HDTV 1080p.by.White Smoke.R.G.Generalfilm.mkv
Format : Matroska
Format version : Version 2
File size : 5.14 GiB
Duration : 1 h 41 min
Overall bit rate mode : Constant
Overall bit rate : 7 218 kb/s
Movie name : Verit i zhdat.s01.e01.2018.HDTV 1080p.by.White Smoke.R.G.Generalfilm.mkv
Encoded date : UTC 2018-08-26 17:49:30
Writing application : mkvmerge v7.6.0 ('Garden of Dreams') 32bit built on Feb 11 2015 00:18:47
Writing library : libebml v1.3.1 + libmatroska v1.4.2
Cover : Yes
Attachments : cover.jpg

Video
ID : 1
Format : AVC
Format/Info : Advanced Video Codec
Format profile : High@L4.1
Format settings, CABAC : Yes
Format settings, ReFrames : 3 frames
Codec ID : V_MPEG4/ISO/AVC
Duration : 1 h 41 min
Bit rate mode : Constant
Bit rate : 7 051 kb/s
Width : 1 920 pixels
Height : 1 080 pixels
Display aspect ratio : 16:9
Frame rate mode : Constant
Frame rate : 25.000 FPS
Standard : PAL
Color space : YUV
Chroma subsampling : 4:2:0
Bit depth : 8 bits
Scan type : Progressive
Bits/(Pixel*Frame) : 0.136
Stream size : 4.90 GiB (95%)
Default : Yes
Forced : No
Color range : Limited
Color primaries : BT.709
Transfer characteristics : BT.709
Matrix coefficients : BT.709

Audio
ID : 2
Format : AC-3
Format/Info : Audio Coding 3
Mode extension : CM (complete main)
Format settings, Endianness : Big
Codec ID : A_AC3
Duration : 1 h 41 min
Bit rate mode : Constant
Bit rate : 192 kb/s
Channel(s) : 2 channels
Channel positions : Front: L R
Sampling rate : 48.0 kHz
Frame rate : 31.250 FPS (1536 spf)
Compression mode : Lossy
Stream size : 140 MiB (3%)
Default : Yes
Forced : No
pb.wtf



Скачать Верить и ждать через торрент http://interhit.org/img/2018-05/27/95e0rpzgd7ieqwngygkarjw3v.gif Скачать фильм Верить и ждать через торрент бесплантно в хорошем качестве Описание: Марина - простая официантка, переехавшая в город из деревни, после того как семь лет назад погиб ее сын Артём. Неизвестная ... 10 10 2
Info! Золотая раздача, скачанное не засчитывается.
Торрент: Зарегистрирован [2018-08-26 18:59] · скачан: 25 раз
Статус: √ проверено
Размер: 10.29 GB
Как cкачать? Как скачать Верить и ждать через торрент | qTorrent

28-11-2019 20:33  

Отключить всю рекламу на сайте

    Дорогой пользователь! Огромная просьба, поблагодарите релизера, оцените раздачу и оставьте свои комментарий, если Вы скачали Верить и ждать через торрент бесплатно! Внесите свою лепту в развитие PiratBit!
    Комментировать посты могут только пользователи прошедшие не сложную регистрацию
    Показать сообщения:    

    Верить и ждать через торрент
    Скачать бесплатно Верить и ждать
    Верить и ждать скачать торрент
    Верить и ждать смотреть онлайн
    Cкачать фильм Верить и ждать бесплатно
    Верить и ждать скачать торрент в хорошем качестве
    Верить и ждать смотреть онлайн бесплатно в хорошем качестве


    Вы не можете начинать темы
    Вы не можете отвечать на сообщения
    Вы не можете редактировать свои сообщения
    Вы не можете удалять свои сообщения
    Вы не можете голосовать в опросах
    Вы не можете прикреплять файлы к сообщениям
    Вы можете скачивать файлы