Ссылка на приватное зеркало нашего сайта всего за 1$. Внимание количество ограничено!!!

2 сезон

iTunes

1 сезон

1

2 сезон

2 сезон

iTunes

1 сезон

RePack

30

Ultimate

ВАЖНО

ИГРА 18+

pack

RePack

MK11
pack

Забери бонус

RePack

jed

!!Акция!!

Alien_Rage

RePack

fifa19

RePack

Assassins Creed: Odyssey

RePack

NEED FOR SPEED™ PAYBACK

4 сезон

9 сезон

Бесстыжие 9 сезон

Все сериалы

все сериалы на PB.wtf

RePack

FAR CRY 5
  

Третья волна зомби / The Cured (Дэвид Фрейн) [2017, Ужасы, фантастика, драма, WEB-DL 720p] DUB [IVI] pb.wtf

Третья волна зомби через торрент pb.wtf

Размер: 1.53 GB | Добавлен: 2 года 3 мес. назад | Торрент скачан:48 раз
Скачать  

19-05-2018 19:18 Третья волна зомби Скачать торрент  

Третья волна зомби / The CuredГод выпуска: 2017
Страна: Ирландия
Жанр: Ужасы, фантастика, драма
Продолжительность: 01:34:52
Перевод: Дублированный | IVI
Субтитры: отсутствуют

Режиссер: Дэвид Фрейн

rating

В ролях:

Эллен Пейдж, Сэм Кили, Том Вон-Лолор, Стюарт Грэхэм, Паула Малкомсон, Хильда Фэй, Питер Кэмпион, Фрэнк Кэннон, Лесли Конрой, Эми Де Брюн

Описание:

После вспышки вируса, обращающего людей в зомбиподобных тварей, врачи нашли лекарство. 75% заражённых оказались восприимчивы к лечению, но после исцеления также сохраняли память о своих зверствах. Правительство пытается вернуть исцелённых в общество, но не всё население поддерживает эту идею.

Качество: WEB-DL 720p
Формат: MP4

Видео: MPEG-4 AVC, 1682 kb/s, 1280x528
Аудио: Русский (AC3, 2 ch, 192 Кбит/с)
Аудио: английский (AC3, 6 ch, 384 Кбит/с)
скриншот  скриншот  скриншот  

Общее
Уникальный идентификатор : 191910035893613707014465993105925496856 (0x9060874A2D30E9FB8BF64C8652D06018)
Полное имя : D:\Заготовки\The.Cured.2017.D.AMZN.WEB-DL.720p.mkv
Формат : Matroska
Версия формата : Version 2
Размер файла : 1,53 Гбайт
Продолжительность : 1 ч. 34 м.
Режим общего битрейта : Переменный
Общий поток : 2304 Кбит/сек
Дата кодирования : UTC 2018-05-19 17:43:33
Программа кодирования : mkvmerge v7.8.0 ('River Man') 32bit built on Apr 3 2015 12:11:22
Библиотека кодирования : libebml v1.3.1 + libmatroska v1.4.2

Видео
Идентификатор : 1
Формат : AVC
Формат/Информация : Advanced Video Codec
Профиль формата : High@L3.1
Настройки формата : CABAC / 5 Ref Frames
Параметр CABAC формата : Да
Параметр RefFrames формата : 5 кадров
Идентификатор кодека : V_MPEG4/ISO/AVC
Продолжительность : 1 ч. 34 м.
Вид битрейта : Переменный
Битрейт : 1682 Кбит/сек
Максимальный битрейт : 4500 Кбит/сек
Ширина : 1280 пикселей
Высота : 528 пикселей
Соотношение сторон : 2,40:1
Соотношение сторон в оригинале : 2,40:1
Режим частоты кадров : Постоянный
Частота кадров : 24,000 кадра/сек
Цветовое пространство : YUV
Субдискретизация насыщенности : 4:2:0
Битовая глубина : 8 бит
Тип развёртки : Прогрессивная
Бит/(Пиксели*Кадры) : 0.104
Размер потока : 1,11 Гбайт (73%)
Язык : English
Default : Да
Forced : Нет
Цветовой диапазон : Limited
Основные цвета : BT.709
Характеристики трансфера : BT.709
Коэффициенты матрицы : BT.709

Аудио #1
Идентификатор : 2
Формат : AC-3
Формат/Информация : Audio Coding 3
Идентификатор кодека : A_AC3
Продолжительность : 1 ч. 34 м.
Вид битрейта : Постоянный
Битрейт : 192 Кбит/сек
Каналы : 2 канала
Расположение каналов : Front: L R
Частота : 48,0 КГц
Частота кадров : 31,250 кадров/сек (1536 SPF)
Битовая глубина : 16 бит
Метод сжатия : С потерями
Размер потока : 130 Мбайт (8%)
Язык : Russian
ServiceKind/String : Complete Main
Default : Да
Forced : Нет

Аудио #2
Идентификатор : 3
Формат : AC-3
Формат/Информация : Audio Coding 3
Идентификатор кодека : A_AC3
Продолжительность : 1 ч. 34 м.
Вид битрейта : Постоянный
Битрейт : 384 Кбит/сек
Каналы : 6 каналов
Расположение каналов : Front: L C R, Side: L R, LFE
Частота : 48,0 КГц
Частота кадров : 31,250 кадров/сек (1536 SPF)
Битовая глубина : 16 бит
Метод сжатия : С потерями
Размер потока : 261 Мбайт (17%)
Язык : English
ServiceKind/String : Complete Main
Default : Нет
Forced : Нет
123456

pb.wtf



Скачать Третья волна зомби через торрент http://img12.lostpic.net/2018/04/24/25b43b62820dd80b6b3cfd05b313c853.jpg Скачать фильм Третья волна зомби через торрент бесплантно в хорошем качестве Описание: После вспышки вируса, обращающего людей в зомбиподобных тварей, врачи нашли лекарство. 75% заражённых оказались восприимчивы к ... 5 10 1
Торрент: Зарегистрирован [2018-08-27 17:58] · скачан: 48 раз
Статус: √ проверено
Размер: 1.53 GB
Как cкачать? Как скачать Третья волна зомби через торрент | qTorrent

% Раздел Тема Автор DL S | L
Фильмы 2017 [DVDrip, WEB-DLRip, HDrip] (DUB, MVO) [ 1.46 GB ] Третья волна зомби / The Cured [2017 BDRip] - [Project Production] Twi7ter Скачать
1 | 0
Фильмы (Blu-ray, BD-Remux, HDDVD) [ 24.9 GB ] Третья волна зомби / The Cured [2017 BD Remux 1080p] DUB [Project Production] bober100 Скачать
1 | 0
Фильмы (WEB-DL 720p, 1080p) [ 3.42 GB ] Третья волна зомби / The Cured [2017 WEB-DL 1080p] DUB [IVI] bober100 Скачать
1 | 0
Фильмы 2017 [DVDrip, WEB-DLRip, HDrip] (DUB, MVO) [ 1.46 GB ] Третья волна зомби / The Cured [2017 BDRip] DUB [Project Production] -Lexx- Скачать
1 | 0

28-11-2019 20:33  

Отключить всю рекламу на сайте

20-05-2018 00:06 Третья волна зомби Скачать торрент  

Очень странная концовка фильма.pb.wtf



20-05-2018 06:27 Третья волна зомби Скачать торрент  

Неплохое кино 4 из 5 автору спс.pb.wtf



21-05-2018 08:57 Третья волна зомби Скачать торрент  

автору спасибо, фильм мне не понравился.нудно,предсказунмоpb.wtf



    Дорогой пользователь! Огромная просьба, поблагодарите релизера, оцените раздачу и оставьте свои комментарий, если Вы скачали Третья волна зомби через торрент бесплатно! Внесите свою лепту в развитие PiratBit!
    Комментировать посты могут только пользователи прошедшие не сложную регистрацию
    Показать сообщения:    

    Третья волна зомби через торрент
    Скачать бесплатно Третья волна зомби
    Третья волна зомби скачать торрент
    Третья волна зомби смотреть онлайн
    Cкачать фильм Третья волна зомби бесплатно
    Третья волна зомби скачать торрент в хорошем качестве
    Третья волна зомби смотреть онлайн бесплатно в хорошем качестве


    Вы не можете начинать темы
    Вы не можете отвечать на сообщения
    Вы не можете редактировать свои сообщения
    Вы не можете удалять свои сообщения
    Вы не можете голосовать в опросах
    Вы не можете прикреплять файлы к сообщениям
    Вы можете скачивать файлы