Ссылка на приватное зеркало нашего сайта всего за 1$. Внимание количество ограничено!!!

2 сезон

iTunes

1 сезон

1

2 сезон

2 сезон

iTunes

1 сезон

RePack

30

Ultimate

ВАЖНО

ИГРА 18+

pack

RePack

MK11
pack

Забери бонус

RePack

jed

!!Акция!!

Alien_Rage

RePack

fifa19

RePack

Assassins Creed: Odyssey

RePack

NEED FOR SPEED™ PAYBACK

4 сезон

9 сезон

Бесстыжие 9 сезон

Все сериалы

все сериалы на PB.wtf

RePack

FAR CRY 5
  

Третья волна зомби / The Cured (Дэвид Фрейн) [2017, Ужасы, фантастика, драма, BD Remux 1080p] DUB [Project Production] pb.wtf

Третья волна зомби через торрент pb.wtf

Размер: 24.9 GB | Добавлен: 2 года 2 мес. назад | Торрент скачан:34 раза
Скачать  

01-06-2018 02:10 Третья волна зомби Скачать торрент  

Третья волна зомби / The Cured
Год выпуска: 2017
Страна: Ирландия
Жанр: Ужасы, фантастика, драма
Продолжительность: 01:31:11
Перевод: Дублированный | Project Production
Субтитры: отсутствуют

Режиссер: Дэвид Фрейн

rating

В ролях:

Эллен Пейдж (Abbie), Сэм Кили (Senan), Том Вон-Лолор (Conor), Стюарт Грэхэм (Cantor), Паула Малкомсон (Dr. Lyons), Наталья Кострцева (Allison), Хильда Фэй (Jo landecker), Сара Кинлен (Catherine), Джуди Донован (Moore Street Trader), Питер Кэмпион (Luke), Фрэнк Кэннон (Garda, Ranger, Zombie, UN Soldier), Лесли Конрой (Katie)
Описание:

После вспышки вируса, обращающего людей в зомбиподобных тварей, врачи нашли лекарство. 75% заражённых оказались восприимчивы к лечению, но после исцеления также сохраняли память о своих зверствах. Правительство пытается вернуть исцелённых в общество, но не всё население поддерживает эту идею.

Качество: BD Remux 1080p
Формат: MKV

Видео: MPEG-4 AVC, 33.6 Mбит/с, 1920x1080, 23,976 кадр/с
Аудио#1: Русский (AС3, 2 ch, 192 Кбит/с) / Дублированный (Project Production)
Аудио#2: Английский (DTS-HD MA, 6 ch, 3611 Кбит/с)
скриншот   скриншот   скриншот   скриншот   скриншот  

General
Unique ID : 289182150057897341578641110103978522798 (0xD98E74CAB1E5172B1347F40DED75B8AE)
Complete name : C:UsersPublicVideosSample VideosFilmyThe.Cured.2017.BDRemux.1080p.MediaClub.mkv
Format : Matroska
Format version : Version 4 / Version 2
File size : 24.9 GiB
Duration : 1 h 35 min
Overall bit rate mode : Variable
Overall bit rate : 37.4 Mb/s
Encoded date : UTC 2018-05-31 22:39:37
Writing application : mkvmerge v19.0.0 ('Brave Captain') 64-bit
Writing library : libebml v1.3.5 + libmatroska v1.4.8
Cover : Yes
Attachments : cover.jpg

Video
ID : 1
Format : AVC
Format/Info : Advanced Video Codec
Format profile : High@L4.1
Format settings : CABAC / 3 Ref Frames
Format settings, CABAC : Yes
Format settings, RefFrames : 3 frames
Codec ID : V_MPEG4/ISO/AVC
Duration : 1 h 35 min
Bit rate mode : Variable
Bit rate : 33.6 Mb/s
Maximum bit rate : 37.0 Mb/s
Width : 1 920 pixels
Height : 1 080 pixels
Display aspect ratio : 16:9
Frame rate mode : Constant
Frame rate : 23.976 (24000/1001) FPS
Color space : YUV
Chroma subsampling : 4:2:0
Bit depth : 8 bits
Scan type : Progressive
Bits/(Pixel*Frame) : 0.675
Stream size : 22.4 GiB (90%)
Title : BDRemux.1080p by Silverok
Default : Yes
Forced : No

Audio #1
ID : 2
Format : AC-3
Format/Info : Audio Coding 3
Codec ID : A_AC3
Duration : 1 h 35 min
Bit rate mode : Constant
Bit rate : 192 kb/s
Channel(s) : 2 channels
Channel positions : Front: L R
Sampling rate : 48.0 kHz
Frame rate : 31.250 FPS (1536 SPF)
Bit depth : 16 bits
Compression mode : Lossy
Stream size : 131 MiB (1%)
Title : Дублированный (Project Production)
Language : Russian
Service kind : Complete Main
Default : Yes
Forced : No

Audio #2
ID : 3
Format : DTS
Format/Info : Digital Theater Systems
Format profile : MA / Core
Codec ID : A_DTS
Duration : 1 h 35 min
Bit rate mode : Variable / Constant
Bit rate : 3 611 kb/s / 1 509 kb/s
Channel(s) : 6 channels
Channel positions : Front: L C R, Side: L R, LFE
Sampling rate : 48.0 kHz
Frame rate : 93.750 FPS (512 SPF)
Bit depth : 24 bits
Compression mode : Lossless / Lossy
Stream size : 2.41 GiB (10%)
Language : English
Default : No
Forced : No

Menu
00:00:00.000 : en:Chapter 01
00:07:15.393 : en:Chapter 02
00:14:43.841 : en:Chapter 03
00:22:22.174 : en:Chapter 04
00:31:12.871 : en:Chapter 05
00:39:44.507 : en:Chapter 06
00:49:21.583 : en:Chapter 07
00:55:54.684 : en:Chapter 08
01:02:42.550 : en:Chapter 09
01:10:15.085 : en:Chapter 10
01:19:25.093 : en:Chapter 11
01:27:20.526 : en:Chapter 12
01:35:00.820 : en:Chapter 13

pb.wtf



Скачать Третья волна зомби через торрент http://img12.lostpic.net/2018/06/01/4cad5fd67ad01f54604407e50d4ba57e.jpg Скачать фильм Третья волна зомби через торрент бесплантно в хорошем качестве Описание: После вспышки вируса, обращающего людей в зомбиподобных тварей, врачи нашли лекарство. 75% заражённых оказались восприимчивы к ... 10 10 2
Info! Золотая раздача, скачанное не засчитывается.
Торрент: Зарегистрирован [2018-08-27 17:58] · скачан: 34 раз
Статус: √ проверено
Размер: 24.9 GB
Как cкачать? Как скачать Третья волна зомби через торрент | qTorrent

% Раздел Тема Автор DL S | L
Фильмы 2017 [DVDrip, WEB-DLRip, HDrip] (DUB, MVO) [ 1.46 GB ] Третья волна зомби / The Cured [2017 BDRip] - [Project Production] Twi7ter Скачать
1 | 0
Фильмы (WEB-DL 720p, 1080p) [ 1.53 GB ] Третья волна зомби / The Cured [2017 WEB-DL 720p] DUB [IVI] bober100 Скачать
1 | 0
Фильмы (WEB-DL 720p, 1080p) [ 3.42 GB ] Третья волна зомби / The Cured [2017 WEB-DL 1080p] DUB [IVI] bober100 Скачать
1 | 0
Фильмы 2017 [DVDrip, WEB-DLRip, HDrip] (DUB, MVO) [ 1.46 GB ] Третья волна зомби / The Cured [2017 BDRip] DUB [Project Production] -Lexx- Скачать
1 | 0

28-11-2019 20:33  

Отключить всю рекламу на сайте

    Дорогой пользователь! Огромная просьба, поблагодарите релизера, оцените раздачу и оставьте свои комментарий, если Вы скачали Третья волна зомби через торрент бесплатно! Внесите свою лепту в развитие PiratBit!
    Комментировать посты могут только пользователи прошедшие не сложную регистрацию
    Показать сообщения:    

    Третья волна зомби через торрент
    Скачать бесплатно Третья волна зомби
    Третья волна зомби скачать торрент
    Третья волна зомби смотреть онлайн
    Cкачать фильм Третья волна зомби бесплатно
    Третья волна зомби скачать торрент в хорошем качестве
    Третья волна зомби смотреть онлайн бесплатно в хорошем качестве


    Вы не можете начинать темы
    Вы не можете отвечать на сообщения
    Вы не можете редактировать свои сообщения
    Вы не можете удалять свои сообщения
    Вы не можете голосовать в опросах
    Вы не можете прикреплять файлы к сообщениям
    Вы можете скачивать файлы