Ссылка на приватное зеркало нашего сайта всего за 1$. Внимание количество ограничено!!!

2 сезон

iTunes

1 сезон

1

2 сезон

2 сезон

iTunes

1 сезон

RePack

30

Ultimate

ВАЖНО

ИГРА 18+

pack

RePack

MK11
pack

Забери бонус

RePack

jed

!!Акция!!

Alien_Rage

RePack

fifa19

RePack

Assassins Creed: Odyssey

RePack

NEED FOR SPEED™ PAYBACK

4 сезон

9 сезон

Бесстыжие 9 сезон

Все сериалы

все сериалы на PB.wtf

RePack

FAR CRY 5
  

Энн / Anne / Сезон: 1 / Серии: 1-7 из 7 (Пол Фокс, Хелен Шейвер, Аманда Таппинг) [2017, драма, WEB-DL 720p] [MVO] (FilmsClub) pb.wtf

Энн через торрент pb.wtf

Размер: 11.98 GB | Добавлен: 2 года 3 мес. назад | Торрент скачан:11 раз
Скачать  

27-08-2018 18:04 Энн Скачать торрент  

Энн / Anne
Год выпуска: 2017
Жанр: Драма
Выпущено: Канада
Продолжительность: 7 x ~ 00:45:00
Перевод: Любительский (многоголосый, закадровый) *FilmsClub*

Режиссер: Пол Фокс, Хелен Шейвер, Аманда Таппинг

В ролях: Эмибет МакНалти, Джеральдин Джеймс, Р.Х. Томсон, Коррин Косло, Эмерик Джетт Монтас, Хелен Джонс, Лукас Джейд Зуманн, Кристиан Мартин, Кайла Мэттьюс

О сериале: Энн — тринадцатилетняя сирота. Девочка рано лишилась родителей и с тех пор живёт в детском приюте. Жизнь героини резко меняется, когда в результате ошибки она попадает к новым приёмным родителям, старой деве и её младшему брату.



Релиз --

Файл

Качество: WEB-DL (720p)
Формат: MKV
Видео: MPEG-4 AVC, ~ 4057 Кбит/с, 1280x720
Аудио 1: AC-3 , 6 Ch / 48kHz / 384kbps - *FilmsClub*
Аудио 2: AC-3 , 6 Ch / 48kHz / 384kbps - Original
Субтитры: Английские
General
Unique ID : 226514860326827605173659739686749019077 (0xAA692CDC3704C3D6CE00C820B29B1BC5)
Complete name : H:\Anne.S01.720p.films.club\Anne.S01E02.720p.WEB-DL.DD5.1.H.264-films.club.mkv
Format : Matroska
Format version : Version 4 / Version 2
File size : 1.50 GiB
Duration : 44 min 8 s
Overall bit rate : 4 854 kb/s
Encoded date : UTC 2018-08-23 12:18:46
Writing application : mkvmerge v24.0.0 ('Beyond The Pale') 64-bit
Writing library : libebml v1.3.6 + libmatroska v1.4.9

Video
ID : 1
Format : AVC
Format/Info : Advanced Video Codec
Format profile : High@L3.1
Format settings : 2 Ref Frames
Format settings, CABAC : No
Format settings, RefFrames : 2 frames
Codec ID : V_MPEG4/ISO/AVC
Duration : 44 min 8 s
Bit rate : 3 990 kb/s
Width : 1 280 pixels
Height : 720 pixels
Display aspect ratio : 16:9
Frame rate mode : Constant
Frame rate : 23.976 (24000/1001) FPS
Color space : YUV
Chroma subsampling : 4:2:0
Bit depth : 8 bits
Scan type : Progressive
Bits/(Pixel*Frame) : 0.181
Stream size : 1.23 GiB (82%)
Language : English
Default : Yes
Forced : No
Color range : Limited
Color primaries : BT.709
Transfer characteristics : BT.709
Matrix coefficients : BT.709

Audio #1
ID : 2
Format : AC-3
Format/Info : Audio Coding 3
Format settings, Endianness : Big
Codec ID : A_AC3
Duration : 44 min 8 s
Bit rate mode : Constant
Bit rate : 384 kb/s
Channel(s) : 6 channels
Channel positions : Front: L C R, Side: L R, LFE
Sampling rate : 48.0 kHz
Frame rate : 31.250 FPS (1536 SPF)
Bit depth : 16 bits
Compression mode : Lossy
Delay relative to video : -42 ms
Stream size : 121 MiB (8%)
Language : Russian
Service kind : Complete Main
Default : Yes
Forced : No

Audio #2
ID : 3
Format : AC-3
Format/Info : Audio Coding 3
Format settings, Endianness : Big
Codec ID : A_AC3
Duration : 44 min 8 s
Bit rate mode : Constant
Bit rate : 384 kb/s
Channel(s) : 6 channels
Channel positions : Front: L C R, Side: L R, LFE
Sampling rate : 48.0 kHz
Frame rate : 31.250 FPS (1536 SPF)
Bit depth : 16 bits
Compression mode : Lossy
Delay relative to video : -42 ms
Stream size : 121 MiB (8%)
Title : Original
Language : English
Service kind : Complete Main
Default : No
Forced : No

Text
ID : 4
Format : UTF-8
Codec ID : S_TEXT/UTF8
Codec ID/Info : UTF-8 Plain Text
Title : English
Language : English
Default : No
Forced : No
скриншот  скриншот  скриншот  
pb.wtf



Скачать Энн через торрент https://i102.fastpic.ru/big/2018/0827/3a/10d452d8c2929238810d602c40a8073a.jpg Скачать фильм Энн через торрент бесплантно в хорошем качестве В ролях: Эмибет МакНалти, Джеральдин Джеймс, Р.Х. Томсон, Коррин Косло, Эмерик Джетт Монтас, Хелен Джонс, Лукас Джейд Зуманн, Кристиан ... 5 10 1
Торрент: Зарегистрирован [2018-08-27 18:04] · скачан: 11 раз
Статус: √ проверено
Размер: 11.98 GB
Как cкачать? Как скачать Энн через торрент | qTorrent

28-11-2019 20:33  

Отключить всю рекламу на сайте

    Дорогой пользователь! Огромная просьба, поблагодарите релизера, оцените раздачу и оставьте свои комментарий, если Вы скачали Энн через торрент бесплатно! Внесите свою лепту в развитие PiratBit!
    Комментировать посты могут только пользователи прошедшие не сложную регистрацию
    Показать сообщения:    

    Энн через торрент
    Скачать бесплатно Энн
    Энн скачать торрент
    Энн смотреть онлайн
    Cкачать фильм Энн бесплатно
    Энн скачать торрент в хорошем качестве
    Энн смотреть онлайн бесплатно в хорошем качестве


    Вы не можете начинать темы
    Вы не можете отвечать на сообщения
    Вы не можете редактировать свои сообщения
    Вы не можете удалять свои сообщения
    Вы не можете голосовать в опросах
    Вы не можете прикреплять файлы к сообщениям
    Вы можете скачивать файлы