Ссылка на приватное зеркало нашего сайта всего за 1$. Внимание количество ограничено!!!

2 сезон

iTunes

1 сезон

1

2 сезон

2 сезон

iTunes

1 сезон

RePack

30

Новинка

ВАЖНО

ИГРА 18+

pack

RePack

MK11
pack

Забери бонус

RePack

jed

!!Акция!!

Alien_Rage

RePack

fifa19

RePack

Assassins Creed: Odyssey

RePack

NEED FOR SPEED™ PAYBACK

4 сезон

9 сезон

Бесстыжие 9 сезон

Все сериалы

все сериалы на PB.wtf

RePack

FAR CRY 5
  

Падение Лондона / London Has Fallen (Бабак Наджафи) [2016, Боевик, триллер, криминал, BD Remux 1080p] [RUS Transfer] DUB [Лицензия Blu-Ray RUS] pb.wtf

Падение Лондона через торрент pb.wtf

Размер: 15.01 GB | Добавлен: 2 года 3 мес. назад | Торрент скачан:24 раза
Скачать  

28-08-2018 06:44 Падение Лондона Скачать торрент  

Падение Лондона / London Has Fallen
Год выпуска: 2016
Страна: США, Великобритания, Болгария
Жанр: Боевик, триллер, криминал
Продолжительность: 01:38:24
Перевод: Дублированный | Лицензия Blu-Ray RUS
Субтитры: отсутствуют

Режиссер: Бабак Наджафи

rating

В ролях:

Джерард Батлер, Аарон Экхарт, Морган Фримен, Алон Абутбул, Валид Зуэйтер, Адель Беншериф, Мехди Дехби, Шивани Гаи, Мартин Петрушев, Оуэн Дэвис, Майкл Уилдман, Рада Митчелл, Стэйси Шэйн, Пенни Дауни, Кларксон Гай Уильямс, Патрик Кеннеди, Колин Сэлмон, Анджела Бассетт, Дебора Грант, Эндрю Плевин

Описание:

При загадочных обстоятельствах убит британский премьер-министр. На его похороны съезжаются лидеры крупнейших держав мира. Несмотря на запредельные меры безопасности, неизвестные террористы успешно взрывают приглашенных руководителей государств одного за другим вместе с половиной исторического центра Лондона. Однако, для президента США и его личного телохранителя все только начинается...

Качество: BD Remux 1080p | RUS Transfer
Формат: MKV

Видео: 1920x1080, 18.9 Mbit/s, 24.000 fps
Аудио#1: 48 kHz, DTS-HD MA, 5.1, 2242 Kbps | Дублированный | Лицензия [Blu-Ray RUS Transfer] |
Аудио#2: 48 kHz, AC3, 5.1, 640 Kbps | Дублированный | Лицензия [Blu-Ray RUS Transfer] |
скриншот   скриншот   скриншот   скриншот   скриншот  

General
Unique ID : 217016382900723010044729089443906705758 (0xA343D5C434A675D892589190CBFBD95E)
Complete name : G:VideoLondon.Has.Fallen.2016.D.BDREMUX.1080p.ExKinoRay.mkv
Format : Matroska
Format version : Version 4 / Version 2
File size : 15.0 GiB
Duration : 1 h 38 min
Overall bit rate mode : Variable
Overall bit rate : 21.8 Mb/s
Movie name : London.Has.Fallen.2016.D.BDREMUX.1080p.ExKinoRay
Encoded date : UTC 2016-08-18 22:02:17
Writing application : mkvmerge v8.3.0 ('Over the Horizon') 64bit
Writing library : libebml v1.3.1 + libmatroska v1.4.2

Video
ID : 1
Format : AVC
Format/Info : Advanced Video Codec
Format profile : High@L4
Format settings, CABAC : Yes
Format settings, ReFrames : 2 frames
Codec ID : V_MPEG4/ISO/AVC
Duration : 1 h 38 min
Bit rate mode : Variable
Bit rate : 18.9 Mb/s
Maximum bit rate : 22.0 Mb/s
Width : 1 920 pixels
Height : 1 080 pixels
Display aspect ratio : 16:9
Frame rate mode : Constant
Frame rate : 24.000 FPS
Color space : YUV
Chroma subsampling : 4:2:0
Bit depth : 8 bits
Scan type : Progressive
Bits/(Pixel*Frame) : 0.381
Stream size : 13.0 GiB (87%)
Language : Russian
Default : Yes
Forced : No

Audio #1
ID : 2
Format : DTS
Format/Info : Digital Theater Systems
Format profile : MA / Core
Mode : 16
Format settings, Endianness : Big
Codec ID : A_DTS
Duration : 1 h 38 min
Bit rate mode : Variable / Constant
Bit rate : 2 242 kb/s / 1 509 kb/s
Channel(s) : 6 channels
Channel positions : Front: L C R, Side: L R, LFE
Sampling rate : 48.0 kHz
Frame rate : 93.750 FPS (512 spf)
Bit depth : 24 bits
Compression mode : Lossless / Lossy
Stream size : 1.54 GiB (10%)
Title : DUB-DTS-HD MA [RUS Transfer]
Language : Russian
Default : Yes
Forced : No

Audio #2
ID : 3
Format : AC-3
Format/Info : Audio Coding 3
Mode extension : CM (complete main)
Format settings, Endianness : Big
Codec ID : A_AC3
Duration : 1 h 38 min
Bit rate mode : Constant
Bit rate : 640 kb/s
Channel(s) : 6 channels
Channel positions : Front: L C R, Side: L R, LFE
Sampling rate : 48.0 kHz
Frame rate : 31.250 FPS (1536 spf)
Compression mode : Lossy
Stream size : 450 MiB (3%)
Title : DUB-AC3 [RUS Transfer]
Language : Russian
Default : No
Forced : No

Menu
00:00:00.000 : en:Chapter 01
00:05:23.281 : en:Chapter 02
00:10:12.987 : en:Chapter 03
00:15:53.202 : en:Chapter 04
00:20:13.546 : en:Chapter 05
00:23:41.462 : en:Chapter 06
00:28:51.229 : en:Chapter 07
00:33:30.383 : en:Chapter 08
00:39:37.208 : en:Chapter 09
00:45:05.286 : en:Chapter 10
00:49:43.105 : en:Chapter 11
00:53:26.954 : en:Chapter 12
00:58:40.392 : en:Chapter 13
01:02:42.467 : en:Chapter 14
01:08:22.598 : en:Chapter 15
01:12:51.075 : en:Chapter 16
01:17:35.401 : en:Chapter 17
01:20:58.270 : en:Chapter 18
01:26:11.500 : en:Chapter 19
01:31:42.247 : en:Chapter 20

pb.wtf



Скачать Падение Лондона через торрент http://img11.lostpic.net/2018/08/28/ebef931d5b779bee175fc8863a0eb614.png Скачать фильм Падение Лондона через торрент бесплантно в хорошем качестве Описание: При загадочных обстоятельствах убит британский премьер-министр. На его похороны съезжаются лидеры крупнейших держав мира. ... 10 10 3
Торрент: Зарегистрирован [2018-08-28 06:44] · скачан: 24 раз
Статус: √ проверено
Размер: 15.01 GB
Как cкачать? Как скачать Падение Лондона через торрент | qTorrent

% Раздел Тема Автор DL S | L
Ultra HD (UHD: 2K, 4K, 8K) — видео сверхвысокой чёткости [ 56.56 GB ] Падение Лондона / London Has Fallen [2016 UHD BDRemux 2160p ] DUB [] +2xAVO [Гаврилов Немахов] bober100 Скачать
1 | 0
Ultra HD (UHD: 2K, 4K, 8K) — видео сверхвысокой чёткости [ 49.01 GB ] Падение Лондона / London Has Fallen [2016 UHD BDRemux 2160p ] DUB [] bober100 Скачать
3 | 0
Ultra HD (UHD: 2K, 4K, 8K) — видео сверхвысокой чёткости [ 43.97 GB ] Падение Лондона / London Has Fallen [2016 UHD BDRemux 2160p] DUB [] +2xAVO [Гаврилов Немахов] bober100 Скачать
2 | 0
Фильмы (Blu-ray, BD-Remux, HDDVD) [ 17.24 GB ] Падение Лондона / London Has Fallen [2016 Blu-ray disc 1080p] [RUS] Dub voovaz Скачать
1 | 0
Фильмы (WEB-DL 720p, 1080p) [ 3.41 GB ] Падение Лондона / London Has Fallen [2016 WEB-DL 1080p ] MeZZAPT Скачать
1 | 0
Фильмы с авторской озвучкой [ 1.46 GB ] Падение Лондона / London Has Fallen [2016 BDRip] [AVO] killermax2013 Скачать
1 | 0
Фильмы [HD 720p, 1080p] (Хороший звук DUB, MVO) [ 10.55 GB ] Падение Лондона / London Has Fallen [2016 BDRip 1080p [] smaster Скачать
1 | 0

28-11-2019 20:33  

Отключить всю рекламу на сайте

    Дорогой пользователь! Огромная просьба, поблагодарите релизера, оцените раздачу и оставьте свои комментарий, если Вы скачали Падение Лондона через торрент бесплатно! Внесите свою лепту в развитие PiratBit!
    Комментировать посты могут только пользователи прошедшие не сложную регистрацию
    Показать сообщения:    

    Падение Лондона через торрент
    Скачать бесплатно Падение Лондона
    Падение Лондона скачать торрент
    Падение Лондона смотреть онлайн
    Cкачать фильм Падение Лондона бесплатно
    Падение Лондона скачать торрент в хорошем качестве
    Падение Лондона смотреть онлайн бесплатно в хорошем качестве


    Вы не можете начинать темы
    Вы не можете отвечать на сообщения
    Вы не можете редактировать свои сообщения
    Вы не можете удалять свои сообщения
    Вы не можете голосовать в опросах
    Вы не можете прикреплять файлы к сообщениям
    Вы можете скачивать файлы