Всегда рабочее зеркало без VPN и Proxy просто перед .vidak.icu напиши любое слово или цифру, Пример http://jbgt.vidak.icu

Лицензия

MVO

1 сезон

1

1 сезон

iTunes

1 сезон

13

1 сезон

Deluxe

pack

Рекомендуем

Repack

30

ВАЖНО

RePack

MK11

RePack

jed

RePack

fifa19

RePack

RDR2

RePack

NEED FOR SPEED™ PAYBACK

Кинопоиск HD

6 сезон

 Острые козырьки 6 сезон

Все сериалы

все сериалы на PB.wtf

RePack

FAR CRY 5
  
Magnet ссылка

Игры патриотов / Patriot Games (Филлип Нойс) [1992, боевик, триллер, UHD BD Remux 2160p] MVO+DUB+DVO+3xAVO pb.wtf

Игры патриотов через торрент pb.wtf

Размер: 51.68 GB | Добавлен: 3 года 11 мес. назад | Торрент скачан:9 раз
Смотреть онлайн Игры патриотов | Скачать    Ребята, помогите собрать деньги на оплату серверов!!!

28-08-2018 07:26 Игры патриотов Скачать торрент  

Игры патриотов / Patriot Games
Год выпуска: 1992
Страна: США
Жанр: боевик, триллер
Продолжительность: 01:56:44
Перевод: Профессиональный (многоголосый), Дублированный, Профессиональный двухголосый, Авторский
Субтитры: Русские (Blu-ray, Карусель), английские

Режиссер: Филлип Нойс

rating

В ролях:

Харрисон Форд, Энн Арчер, Патрик Бергин, Шон Бин, Тора Бирч, Джеймс Фокс, Сэмюэл Л. Джексон, Полли Уолкер, Дж.Е. Фриман, Джеймс Эрл Джонс, Ричард Харрис, Алекс Нортон, Хью Фрайзер, Дэвид Трелфал, Алан Армстронг, Хью Росс, Джералд Сим, Пип Торренс, Томас Расселл, Джонатан Райан

Описание:

Бывший сотрудник ЦРУ, а ныне профессор военно-морской академии США Джек Райан, находясь в Лондоне с докладом, случайно становится свидетелем террористического акта Ирландской республиканской армии против королевской семьи. Райан предотвращает трагедию, но ирландские террористы грозят отомстить. Опасная угроза нависает над Райаном, его женой и дочерью...

Качество: UHD BD Remux 2160p
Формат: MKV

Видео: HEVC HDR, 48.3 Mбит/с, 3840x2160, 23.976 кадр/с
Аудио#1: Русский (AC3, 6 ch, 640 Кбит/с) / Профессиональный многоголосый (Blu-ray)
Аудио#2: Русский (AC3, 2 ch, 224 Кбит/с) / Дублированный (Мосфильм)
Аудио#3: Русский (DTS-HD MA, 6 ch, 4093 Кбит/с) / Профессиональный двухголосый (Карусель)
Аудио#4: Русский (DTS, 6 ch, 1509 Кбит/с) / Авторский (Андрей Гаврилов)
Аудио#5: Русский (DTS-HD MA, 6 ch, 4089 Кбит/с) / Авторский (Юрий Живов)
Аудио#6: Русский (AC3, 2 ch, 192 Кбит/с) / Авторский (Антон Пронин)
Аудио#7: Английский (TrueHD, 6 ch, 3612 Кбит/с)
Аудио#8: Английский (AC3, 6 ch, 640 Кбит/с)
скриншот  скриншот  скриншот  скриншот  скриншот  

General
Unique ID : 41214345771287624535717489053251271642 (0x1F019821CFC9FBACC04796B20441FBDA)
Complete name : D:uTorrentPatriot.Games.1992.BDRemux.2160p.HDR.MediaClub.mkv
Format : Matroska
Format version : Version 4 / Version 2
File size : 51.7 GiB
Duration : 1 h 56 min
Overall bit rate mode : Variable
Overall bit rate : 63.4 Mb/s
Encoded date : UTC 2018-08-27 21:37:02
Writing application : mkvmerge v25.0.0 ('Prog Noir') 64-bit
Writing library : libebml v1.3.6 + libmatroska v1.4.9
Cover : Yes
Attachments : cover.jpg

Video
ID : 1
Format : HEVC
Format/Info : High Efficiency Video Coding
Commercial name : HDR10
Format profile : Main [email protected]@High
Codec ID : V_MPEGH/ISO/HEVC
Duration : 1 h 56 min
Bit rate : 48.3 Mb/s
Width : 3 840 pixels
Height : 2 160 pixels
Display aspect ratio : 16:9
Frame rate mode : Constant
Frame rate : 23.976 (24000/1001) FPS
Color space : YUV
Chroma subsampling : 4:2:0 (Type 2)
Bit depth : 10 bits
Bits/(Pixel*Frame) : 0.243
Stream size : 39.4 GiB (76%)
Title : BDRemux.2160p.HDR by Silverok
Default : Yes
Forced : No
Color range : Limited
Color primaries : BT.2020
Transfer characteristics : PQ
Matrix coefficients : BT.2020 non-constant
Mastering display color primaries : Display P3
Mastering display luminance : min: 0.0050 cd/m2, max: 1000 cd/m2
Maximum Content Light Level : 1000 cd/m2
Maximum Frame-Average Light Level : 348 cd/m2

Audio #1
ID : 2
Format : AC-3
Format/Info : Audio Coding 3
Codec ID : A_AC3
Duration : 1 h 56 min
Bit rate mode : Constant
Bit rate : 640 kb/s
Channel(s) : 6 channels
Channel positions : Front: L C R, Side: L R, LFE
Sampling rate : 48.0 kHz
Frame rate : 31.250 FPS (1536 SPF)
Bit depth : 16 bits
Compression mode : Lossy
Stream size : 534 MiB (1%)
Title : Профессиональный многоголосый (Blu-ray)
Language : Russian
Service kind : Complete Main
Default : Yes
Forced : No

Audio #2
ID : 3
Format : AC-3
Format/Info : Audio Coding 3
Codec ID : A_AC3
Duration : 1 h 56 min
Bit rate mode : Constant
Bit rate : 224 kb/s
Channel(s) : 2 channels
Channel positions : Front: L R
Sampling rate : 48.0 kHz
Frame rate : 31.250 FPS (1536 SPF)
Bit depth : 16 bits
Compression mode : Lossy
Stream size : 187 MiB (0%)
Title : Дублированный (Мосфильм)
Language : Russian
Service kind : Complete Main
Default : No
Forced : No

Audio #3
ID : 4
Format : DTS
Format/Info : Digital Theater Systems
Format profile : MA / Core
Codec ID : A_DTS
Duration : 1 h 56 min
Bit rate mode : Variable / Constant
Bit rate : 4 093 kb/s / 1 509 kb/s
Channel(s) : 6 channels
Channel positions : Front: L C R, Side: L R, LFE
Sampling rate : 48.0 kHz
Frame rate : 93.750 FPS (512 SPF)
Bit depth : 24 bits
Compression mode : Lossless / Lossy
Delay relative to video : 6 ms
Stream size : 3.34 GiB (6%)
Title : Профессиональный двухголосый (Карусель)
Language : Russian
Default : No
Forced : No

Audio #4
ID : 5
Format : DTS
Format/Info : Digital Theater Systems
Codec ID : A_DTS
Duration : 1 h 56 min
Bit rate mode : Constant
Bit rate : 1 509 kb/s
Channel(s) : 6 channels
Channel positions : Front: L C R, Side: L R, LFE
Sampling rate : 48.0 kHz
Frame rate : 93.750 FPS (512 SPF)
Bit depth : 24 bits
Compression mode : Lossy
Stream size : 1.23 GiB (2%)
Title : Авторский (Андрей Гаврилов)
Language : Russian
Default : No
Forced : No

Audio #5
ID : 6
Format : DTS
Format/Info : Digital Theater Systems
Format profile : MA / Core
Codec ID : A_DTS
Duration : 1 h 56 min
Bit rate mode : Variable / Constant
Bit rate : 4 089 kb/s / 1 509 kb/s
Channel(s) : 6 channels
Channel positions : Front: L C R, Side: L R, LFE
Sampling rate : 48.0 kHz
Frame rate : 93.750 FPS (512 SPF)
Bit depth : 24 bits
Compression mode : Lossless / Lossy
Delay relative to video : 6 ms
Stream size : 3.33 GiB (6%)
Title : Авторский (Юрий Живов)
Language : Russian
Default : No
Forced : No

Audio #6
ID : 7
Format : AC-3
Format/Info : Audio Coding 3
Codec ID : A_AC3
Duration : 1 h 56 min
Bit rate mode : Constant
Bit rate : 192 kb/s
Channel(s) : 2 channels
Channel positions : Front: L R
Sampling rate : 48.0 kHz
Frame rate : 31.250 FPS (1536 SPF)
Bit depth : 16 bits
Compression mode : Lossy
Stream size : 160 MiB (0%)
Title : Авторский (Антон Пронин)
Language : Russian
Service kind : Complete Main
Default : No
Forced : No

Audio #7
ID : 8
Format : TrueHD
Codec ID : A_TRUEHD
Duration : 1 h 56 min
Bit rate mode : Variable
Bit rate : 3 612 kb/s
Maximum bit rate : 4 860 kb/s
Channel(s) : 6 channels
Channel positions : Front: L C R, Side: L R, LFE
Sampling rate : 48.0 kHz
Frame rate : 1 200.000 FPS (40 SPF)
Compression mode : Lossless
Stream size : 2.94 GiB (6%)
Language : English
Default : No
Forced : No

Audio #8
ID : 9
Format : AC-3
Format/Info : Audio Coding 3
Codec ID : A_AC3
Duration : 1 h 56 min
Bit rate mode : Constant
Bit rate : 640 kb/s
Channel(s) : 6 channels
Channel positions : Front: L C R, Side: L R, LFE
Sampling rate : 48.0 kHz
Frame rate : 31.250 FPS (1536 SPF)
Bit depth : 16 bits
Compression mode : Lossy
Stream size : 534 MiB (1%)
Language : English
Service kind : Complete Main
Default : No
Forced : No

Text #1
ID : 10
Format : UTF-8
Codec ID : S_TEXT/UTF8
Codec ID/Info : UTF-8 Plain Text
Duration : 1 h 52 min
Bit rate : 79 b/s
Count of elements : 1119
Stream size : 65.6 KiB (0%)
Title : Full (Blu-ray)
Language : Russian
Default : Yes
Forced : No

Text #2
ID : 11
Format : UTF-8
Codec ID : S_TEXT/UTF8
Codec ID/Info : UTF-8 Plain Text
Duration : 1 h 51 min
Bit rate : 85 b/s
Count of elements : 1417
Stream size : 69.3 KiB (0%)
Title : Full (Карусель)
Language : Russian
Default : No
Forced : No

Text #3
ID : 12
Format : UTF-8
Codec ID : S_TEXT/UTF8
Codec ID/Info : UTF-8 Plain Text
Duration : 1 h 49 min
Bit rate : 43 b/s
Count of elements : 1198
Stream size : 35.1 KiB (0%)
Title : Full
Language : English
Default : No
Forced : No

Menu
00:00:00.000 : en:00:00:00.000
00:02:36.448 : en:00:02:36.448
00:05:47.722 : en:00:05:47.722
00:11:47.040 : en:00:11:47.040
00:13:28.558 : en:00:13:28.558
00:19:57.196 : en:00:19:57.196
00:24:59.873 : en:00:24:59.873
00:27:54.298 : en:00:27:54.298
00:33:56.493 : en:00:33:56.493
00:38:00.737 : en:00:38:00.737
00:40:04.277 : en:00:40:04.277
00:51:17.324 : en:00:51:17.324
00:57:09.343 : en:00:57:09.343
01:04:10.096 : en:01:04:10.096
01:10:52.081 : en:01:10:52.081
01:15:46.834 : en:01:15:46.834
01:19:18.128 : en:01:19:18.128
01:27:10.434 : en:01:27:10.434
01:31:42.664 : en:01:31:42.664
01:44:04.905 : en:01:44:04.905
01:51:14.501 : en:01:51:14.501
01:52:45.175 : en:01:52:45.175

pb.wtf



Скачать Игры патриотов через торрент http://img11.lostpic.net/2018/08/26/5f0c5ed9b4b31d7d664f7db100f8e846.jpg Скачать, смотреть онлайн Игры патриотов бесплантно в хорошем качестве Описание: Бывший сотрудник ЦРУ, а ныне профессор военно-морской академии США Джек Райан, находясь в Лондоне с докладом, случайно становится ... 9.5 10 4
Торрент: Зарегистрирован [2018-08-28 07:26] · скачан: 9 раз
Статус: √ проверено
Размер: 51.68 GB
Как cкачать? Как скачать Игры патриотов через торрент | UTorrent

28-11-2019 20:33  

Отключить вcю реклaмy на сайте

    Дорогой пользователь! Огромная просьба, поблагодарите релизера, оцените раздачу и оставьте свои комментарий, если Вы скачали Игры патриотов через торрент бесплатно!
    Комментировать посты могут только пользователи прошедшие не сложную регистрацию
    Показать сообщения:    

    Игры патриотов через торрент
    Скачать бесплатно Игры патриотов
    Игры патриотов скачать торрент
    Игры патриотов смотреть онлайн
    Cкачать фильм Игры патриотов бесплатно
    Игры патриотов скачать торрент в хорошем качестве
    Игры патриотов смотреть онлайн бесплатно в хорошем качестве


    Вы не можете начинать темы
    Вы не можете отвечать на сообщения
    Вы не можете редактировать свои сообщения
    Вы не можете удалять свои сообщения
    Вы не можете голосовать в опросах
    Вы не можете прикреплять файлы к сообщениям
    Вы можете скачивать файлы