Доктор Стрэндж

Лицензия

Добыча

Дубляж

Дом дракона

1 сезон

Тор

Дубляж

В эфире

Дубляж

Там, где раки поют

MVO

Властелин колец

1 сезон

Ultimate

pack

Рекомендуем

30

Пиратка

ВАЖНО

ВАЖНО

Ghostwire

Пиратка

jed

RePack

nioh2

RePack

RDR2

RePack

NEED FOR SPEED™ PAYBACK

RePack

скачать торрент

Кинопоиск HD

Острые козырьки 6 сезон

6 сезон

FAR CRY 6

RePack

скачать торрент

Лицензия

скачать торрент

MVO

1

1 сезон

скачать торрент

1 сезон

скачать торрент

Лицензия

  

Пес Барбос и необычный кросс. Самогонщики (Леонид Гайдай) [1961-1962, СССР, короткометражка, комедия, BDRip от AVP Studio]

Пес Барбос и необычный кросс. Самогонщики через торрент pb.wtf

Размер: 556 MB | Добавлен: 4 года 3 мес. назад | Торрент скачан:21 раз
Смотреть онлайн | Скачать   

28-08-2018 08:17 Пес Барбос и необычный кросс. Самогонщики Скачать торрент  

Пес Барбос и необычный кросс. Самогонщики
Страна: СССР
Год выпуска: 1961
Студия: Мосфильм

Жанр: комедия
Продолжительность: 00:10:28 + 00:18:59

Перевод: не требуется
Оригинальная аудиодорожка: русский
Cубтитры: нет

Режиссер: Леонид Гайдай

В ролях:
Евгений Моргунов, Георгий Вицин, Юрий Никулин, Владимир Пицек...
Об актёрах подробней

Описание:
Пес Барбос и необычный кросс:
Что есть главное средство для поддержания мужской дружбы и просто для увлекательного времяпрепровождения? Правильно, это рыбалка. Трус, Балбес и Бывалый решили испытать эту радость жизни на себе, но на свою беду взяли они с собой пса Барбоса…
Самогонщики:
Трус, Балбес и Бывалый решают поставить на широкую ногу изготовление самогона — и снова фиаско…


Исходник: Blu-ray 1080p
Тип релиза: BDRip
Контейнер: AVI

Видео: 720x528 (1,364:1), 23,976 fps, XviD ~ 2009 kbps avg, 0.220 bit/pixel
Аудио: 48 kHz, AC3, 6 ch, 448.00 kbps

Раздача от:
Общее
Полное имя : Pes.Barbos.i.neobychnyy.kross.1961.BDRip_[New-team]_by_AVP_Studio.avi
Формат : AVI
Формат/Информация : Audio Video Interleave
Размер файла : 185 Мбайт
Продолжительность : 10 м. 28 с.
Общий поток : 2466 Кбит/сек
Программа кодирования : VirtualDubMod 1.5.10.3 | www.virtualdub-fr.org || (build 2550/release)
Библиотека кодирования : VirtualDubMod build 2550/release

Видео
Идентификатор : 0
Формат : MPEG-4 Visual
Профиль формата : Advanced [email protected]
Настройки формата : BVOP1 / Custom Matrix
Параметр BVOP формата : 1
Параметр QPel формата : Нет
Параметр GMC формата : Без точки перехода
Параметр матрицы формата : Выборочная
Идентификатор кодека : XVID
Идентификатор кодека/Подсказка : XviD
Продолжительность : 10 м. 28 с.
Битрейт : 2009 Кбит/сек
Ширина : 720 пикселей
Высота : 528 пикселей
Соотношение сторон : 1,364:1
Частота кадров : 23,976 (24000/1001) кадра/сек
Частота кадров в оригинале : 23,976 (23976/1000) кадра/сек
Цветовое пространство : YUV
Субдискретизация насыщенности : 4:2:0
Битовая глубина : 8 бит
Тип развёртки : Прогрессивная
Метод сжатия : С потерями
Бит/(Пиксели*Кадры) : 0.220
Размер потока : 150 Мбайт (81%)
Библиотека кодирования : XviD 73

Аудио
Идентификатор : 1
Формат : AC-3
Формат/Информация : Audio Coding 3
Идентификатор кодека : 2000
Продолжительность : 10 м. 28 с.
Вид битрейта : Постоянный
Битрейт : 448 Кбит/сек
Каналы : 6 каналов
Расположение каналов : Front: L C R, Side: L R, LFE
Частота : 48,0 КГц
Частота кадров : 31,250 кадров/сек (1536 SPF)
Битовая глубина : 16 бит
Метод сжатия : С потерями
Размер потока : 33,5 Мбайт (18%)
Выравнивание : Разделение по промежуткам
Продолжительность промежутка : 42 мс. (1,00 видеокадр)
Время предзагрузки промежутка : 500 мс



Скачать Пес Барбос и необычный кросс. Самогонщики через торрент http://picplus.ru/img/1808/28/4cb0521b.png Скачать, смотреть онлайн Пес Барбос и необычный кросс. Самогонщики бесплантно в хорошем качестве Описание:Пес Барбос и необычный кросс:Что есть главное средство для поддержания мужской дружбы и просто для увлекательного ... 10 10 2
Info! Золотая раздача, скачанное не засчитывается.
Торрент: Зарегистрирован [2018-08-28 08:17] · скачан: 21 раз
Статус: √ проверено
Размер: 556 MB
Как cкачать? Как скачать Пес Барбос и необычный кросс. Самогонщики через торрент | UTorrent

% Раздел Тема Автор DL S | L
Фильмы (HD 720p, 1080p) (48-60 fps) [ 1.6 GB ] Самогонщики / Пес Барбос и необычный кросс | | 720p / 60 FPS, slaventi-69 Скачать
1 | 0
Кино СССР [ 559 MB ] Пес Барбос и необычный кросс. Самогонщики | | BDRip-AVC от AVP Studio AVP Studio Скачать
1 | 0
Кино СССР [ 1.09 GB ] Пес Барбос и необычный кросс. Самогонщики | | 720p от AVP Studio AVP Studio Скачать
2 | 0
Кино СССР [ 413 MB ] Пес Барбос и необычный кросс. Самогонщики | | DVDRip, Оригинал wekotila Скачать
1 | 0

28-11-2019 20:33  


Отключить вcю реклaмy на сайте, в т.ч. и в плеере онлайн просмотра!

    Дорогой пользователь! Огромная просьба, поблагодарите релизера, оцените раздачу и оставьте свои комментарий, если Вы скачали Пес Барбос и необычный кросс. Самогонщики через торрент бесплатно!!
    Комментировать посты могут только пользователи прошедшие не сложную регистрацию
    Показать сообщения:    


    Пес Барбос и необычный кросс. Самогонщики через торрент
    Скачать бесплатно Пес Барбос и необычный кросс. Самогонщики
    Пес Барбос и необычный кросс. Самогонщики скачать торрент
    Пес Барбос и необычный кросс. Самогонщики смотреть онлайн
    Cкачать фильм Пес Барбос и необычный кросс. Самогонщики бесплатно
    Пес Барбос и необычный кросс. Самогонщики скачать торрент в хорошем качестве
    Пес Барбос и необычный кросс. Самогонщики смотреть онлайн бесплатно в хорошем качестве
    Вы не можете начинать темы
    Вы не можете отвечать на сообщения
    Вы не можете редактировать свои сообщения
    Вы не можете удалять свои сообщения
    Вы не можете голосовать в опросах
    Вы не можете прикреплять файлы к сообщениям
    Вы можете скачивать файлы
    Пес Барбос и необычный кросс. Самогонщики [1961-1962, СССР, короткометражка, комедия, BDRip от AVP Studio] смотреть онлайн, скачать торрент picoco.icu