новый адрес пиратбит piratbit
Мега распродажа FORZA HORIZON 4 ULTIMATE+ВСЕ DLC+ОНЛАЙН всего за 499р. 349 руб. (супер цена). Внимание количество ограничено!!!

iTunes

1+1

iTunes

мы

iTunes

1

iTunes

Чернобыль

iTunes

Ральф против интернета

Лицензия

ПШазам

Лицензия

Игра престолов

Лицензия

30
pack

ВАЖНО

!!Акция!!

Alien_RageХит недели

RePack

Resident Evil 21

ИГРА 18+

pack

RePack

Metro:Exodus

!!Акция!!

Alien_Rage

RePack

fifa19

RePack

Assassins Creed: Odyssey

RePack

NEED FOR SPEED™ PAYBACK

3 сезон

9 сезон

Бесстыжие 9 сезон

Все сериалы

все сериалы на PB.wtf

RePack

FAR CRY 5
Ребята, катастрофически не хватает 1900р. для оплаты серверов за Октябрь (всвязи с блокировками трафик упал в 3 раза), 1-2р., выручайте.
  

Пес Барбос и необычный кросс. Самогонщики (Леонид Гайдай) [1961-1962, СССР, короткометражка, комедия, BDRip-AVC от AVP Studio] pb.wtf

Пес Барбос и необычный кросс. Самогонщики через торрент pb.wtf

Размер: 559 MB | Добавлен: 1 год 2 мес. назад | Торрент скачан:23 раза
Скачать  

28-08-2018 08:19 Пес Барбос и необычный кросс. Самогонщики Скачать торрент  

Пес Барбос и необычный кросс. Самогонщики
Страна: СССР
Год выпуска: 1961
Студия: Мосфильм

Жанр: комедия
Продолжительность: 00:10:28 + 00:18:59

Перевод: не требуется
Оригинальная аудиодорожка: русский
Cубтитры: нет

Режиссер: Леонид Гайдай

В ролях:
Евгений Моргунов, Георгий Вицин, Юрий Никулин, Владимир Пицек...
Об актёрах подробней

Описание:
Пес Барбос и необычный кросс:
Что есть главное средство для поддержания мужской дружбы и просто для увлекательного времяпрепровождения? Правильно, это рыбалка. Трус, Балбес и Бывалый решили испытать эту радость жизни на себе, но на свою беду взяли они с собой пса Барбоса…
Самогонщики:
Трус, Балбес и Бывалый решают поставить на широкую ногу изготовление самогона — и снова фиаско…


Исходник: Blu-ray 1080p
Тип релиза: BDRip-AVC
Контейнер: MKV

Видео: 792x576 (1,375:1), 23,976 fps, H264 ~ 2037 kbps avg, 0.186 bit/pixel
Аудио: 48 kHz, AC3, 6 ch, 448.00 kbps

Раздача от:
Общее
Полное имя : Pes.Barbos.i.neobychnyy.kross.1961.BDRip-AVC_[New-team]_by_AVP_Studio.mkv
Формат : Matroska
Версия формата : Version 2
Размер файла : 186 Мбайт
Продолжительность : 10 м. 28 с.
Общий поток : 2487 Кбит/сек
Дата кодирования : UTC 2018-08-21 10:41:23
Программа кодирования : mkvmerge v6.1.0 ('Old Devil') built on Mar 4 2013 09:10:42
Библиотека кодирования : libebml v1.3.0 + libmatroska v1.4.0

Видео
Идентификатор : 1
Формат : AVC
Формат/Информация : Advanced Video Codec
Профиль формата : High@L4.1
Настройки формата : CABAC / 10 Ref Frames
Параметр CABAC формата : Да
Параметр RefFrames формата : 10 кадров
Идентификатор кодека : V_MPEG4/ISO/AVC
Продолжительность : 10 м. 28 с.
Битрейт : 2037 Кбит/сек
Ширина : 792 пикселя
Высота : 576 пикселей
Соотношение сторон : 1,375
Режим частоты кадров : Постоянный
Частота кадров : 23,976 (24000/1001) кадра/сек
Цветовое пространство : YUV
Субдискретизация насыщенности : 4:2:0
Битовая глубина : 8 бит
Тип развёртки : Прогрессивная
Бит/(Пиксели*Кадры) : 0.186
Размер потока : 149 Мбайт (80%)
Библиотека кодирования : x264 core 130 r2273 b3065e6
Настройки программы : cabac=1 / ref=10 / deblock=1:-3:-2 / analyse=0x3:0x113 / me=umh / subme=10 / psy=1 / psy_rd=1.00:0.00 / mixed_ref=1 / me_range=32 / chroma_me=1 / trellis=2 / 8x8dct=1 / cqm=0 / deadzone=21,11 / fast_pskip=1 / chroma_qp_offset=-2 / threads=6 / lookahead_threads=1 / sliced_threads=0 / nr=0 / decimate=0 / interlaced=0 / bluray_compat=0 / constrained_intra=0 / bframes=8 / b_pyramid=2 / b_adapt=2 / b_bias=0 / direct=3 / weightb=1 / open_gop=0 / weightp=2 / keyint=240 / keyint_min=24 / scenecut=40 / intra_refresh=0 / rc_lookahead=40 / rc=2pass / mbtree=1 / bitrate=2037 / ratetol=1.0 / qcomp=0.60 / qpmin=0 / qpmax=69 / qpstep=4 / cplxblur=20.0 / qblur=0.5 / ip_ratio=1.40 / aq=1:1.00
Default : Да
Forced : Нет

Аудио
Идентификатор : 2
Формат : AC-3
Формат/Информация : Audio Coding 3
Идентификатор кодека : A_AC3
Продолжительность : 10 м. 28 с.
Вид битрейта : Постоянный
Битрейт : 448 Кбит/сек
Каналы : 6 каналов
Расположение каналов : Front: L C R, Side: L R, LFE
Частота : 48,0 КГц
Частота кадров : 31,250 кадров/сек (1536 SPF)
Битовая глубина : 16 бит
Метод сжатия : С потерями
Размер потока : 33,5 Мбайт (18%)
Default : Да
Forced : Нет
pb.wtf



Скачать Пес Барбос и необычный кросс. Самогонщики через торрент http://picplus.ru/img/1808/28/4cb0521b.png Скачать фильм Пес Барбос и необычный кросс. Самогонщики через торрент бесплантно в хорошем качестве Описание:Пес Барбос и необычный кросс:Что есть главное средство для поддержания мужской дружбы и просто для увлекательного ... 10 10 3
Info! Золотая раздача, скачанное не засчитывается.
Торрент: Зарегистрирован [2018-08-28 08:19] · скачан: 23 раз
Статус: √ проверено
Размер: 559 MB
Как cкачать? Как скачать Пес Барбос и необычный кросс. Самогонщики через торрент | qTorrent

% Раздел Тема Автор DL S | L
Кино СССР [ 1.09 GB ] Пес Барбос и необычный кросс. Самогонщики [1961-1962 СССР короткометражка BDRip 720p от AVP Studio] AVP Studio Скачать
1 | 0
Кино СССР [ 556 MB ] Пес Барбос и необычный кросс. Самогонщики [1961-1962 СССР короткометражка BDRip от AVP Studio] AVP Studio Скачать
1 | 0
Наши фильмы (HD, WEB-DL 720p, 1080p) [ 1.75 GB ] Самогонщики / Пес Барбос и необычный кросс [1961 BDRip 1080p HEVC] ADVOKAT69 Скачать
1 | 0
Кино СССР [ 413 MB ] Пес Барбос и необычный кросс. Самогонщики [1961 короткрометражный DVDRip Оригинал] wekotila Скачать
1 | 0
Видео для КПК и Смартфонов [ 80 MB ] Самогонщики / Пёс Барбос и необычный кросс [1961 MP4 320*240 DVDRip] Страна Скачать
1 | 0


>> Регистрируемся здесь <<






Отзывы и комментарии о схеме читаем и пишем здесь: ---> Отзывы и комментарии о схеме

Новые благодарочки в телеграм довольных пользователей:
скриншот   скриншот   скриншот   скриншот   скриншот
    Дорогой пользователь! Огромная просьба, поблагодарите релизера, оцените раздачу и оставьте свои комментарий, если Вы скачали Пес Барбос и необычный кросс. Самогонщики через торрент бесплатно! Внесите свою лепту в развитие PiratBit!
    Комментировать посты могут только пользователи прошедшие не сложную регистрацию
    Показать сообщения:    

    Пес Барбос и необычный кросс. Самогонщики через торрент
    Скачать бесплатно Пес Барбос и необычный кросс. Самогонщики
    Пес Барбос и необычный кросс. Самогонщики скачать торрент
    Пес Барбос и необычный кросс. Самогонщики смотреть онлайн
    Cкачать фильм Пес Барбос и необычный кросс. Самогонщики бесплатно
    Пес Барбос и необычный кросс. Самогонщики скачать торрент в хорошем качестве
    Пес Барбос и необычный кросс. Самогонщики смотреть онлайн бесплатно в хорошем качестве


    Вы не можете начинать темы
    Вы не можете отвечать на сообщения
    Вы не можете редактировать свои сообщения
    Вы не можете удалять свои сообщения
    Вы не можете голосовать в опросах
    Вы не можете прикреплять файлы к сообщениям
    Вы можете скачивать файлы