Ссылка на приватное зеркало всего за 1$. Внимание количество ограничено!!!

OK

1+1

iTunes

мы

OK

1

WEB-DLRip

Джокер

Пифагор

Ведьмак / The Witcher сериал

iTunes

ПШазам

ОК

Оно 2

iTunes

30
pack

Вам бонус

ВАЖНО

!!Акция!!

Alien_RageХит недели

RePack

Resident Evil 21

ИГРА 18+

pack

RePack

jed

RePack

fifa19

RePack

Assassins Creed: Odyssey

RePack

NEED FOR SPEED™ PAYBACK

4 сезон

9 сезон

Бесстыжие 9 сезон

Все сериалы

все сериалы на PB.wtf

RePack

FAR CRY 5
  

Правда или действие / Truth or Dare (Джефф Уодлоу) [2018, Ужасы, триллер, BDRip-AVC] [Расширенная версия] DUB [Лицензия] pb.wtf

Правда или действие через торрент pb.wtf

Размер: 1.43 GB | Добавлен: 1 год 4 мес. назад | Торрент скачан:217 раз
Скачать  

28-08-2018 12:16 Правда или действие Скачать торрент  

Правда или действие / Truth or Dare
Год выпуска: 2018
Страна: США
Жанр: Ужасы, триллер
Продолжительность: 01:40:32
Перевод: Дублированный | Лицензия
Субтитры: Русские (форс., полные), Английские (полные, SDH)

Режиссер: Джефф Уодлоу

rating

В ролях:

Люси Хейл, Тайлер Пози, Вайолетт Бин, Софи Тэйлор Али, Нолан Джерард Фанк, Лэндон Либуарон, Сэм Лернер, Гари Энтони Уильямс, Хейден Сзето

Описание:

Обычная игра «Правда или действие» превращается в жестокую гонку со смертью, когда к процессу подключается нечто сверхъестественное. Стоит кому-то из участников соврать или не выполнить положенное действие, его ждет жестокая расправа. Кто в итоге сможет выйти победителем в жестокой игре?

Качество: BDRip-AVC | Расширенная версия
Формат: MKV

Видео: 1024x428 (2.40:1), 23,976 fps, x264 ~1 138 kbps avg, 0.108 bit/pixel
Аудио#1: 48 kHz, AC3 Dolby Digital, 3/2 (L,C,R,l,r) + LFE ch, ~448.00 kbps avg | RUS (Лицензия)
Аудио#2: 48 kHz, AC3 Dolby Digital, 3/2 (L,C,R,l,r) + LFE ch, ~448.00 kbps avg | ENG
скриншот  скриншот  скриншот  скриншот  скриншот  

Общее
Уникальный идентификатор : 31759919356021132941640010626832282660 (0x17E4BCEBBA1C522C36F7585DDAE43424)
Полное имя : F:\OlLanDGroup\Truth.Or.Dare.2018.BDRip(AVC).OlLanDGroup.mkv
Формат : Matroska
Версия формата : Version 4 / Version 2
Размер файла : 1,43 Гбайт
Продолжительность : 1 ч. 40 м.
Общий поток : 2036 Кбит/сек
Название фильма : Truth.Or.Dare.2018 #TorpedoUK#
Дата кодирования : UTC 2018-08-28 11:20:22
Программа кодирования : mkvmerge v25.0.0 ('Prog Noir') 64-bit
Библиотека кодирования : libebml v1.3.6 + libmatroska v1.4.9

Видео
Идентификатор : 1
Формат : AVC
Формат/Информация : Advanced Video Codec
Профиль формата : High@L4.1
Параметр CABAC формата : Да
Параметр ReFrames формата : 10 кадров
Идентификатор кодека : V_MPEG4/ISO/AVC
Продолжительность : 1 ч. 40 м.
Битрейт : 1138 Кбит/сек
Ширина : 1024 пикселя
Высота : 428 пикселей
Соотношение сторон : 2,40:1
Режим частоты кадров : Постоянный
Частота кадров : 23,976 (24000/1001) кадра/сек
Цветовое пространство : YUV
Субдискретизация насыщенности : 4:2:0
Битовая глубина : 8 бит
Тип развёртки : Прогрессивная
Бит/(Пиксели*Кадры) : 0.108
Размер потока : 818 Мбайт (56%)
Библиотека кодирования : x264 core 146 r2538 121396c
Настройки программы : cabac=1 / ref=10 / deblock=1:-3:-3 / analyse=0x3:0x113 / me=umh / subme=11 / psy=1 / psy_rd=1.00:0.03 / mixed_ref=1 / me_range=48 / chroma_me=1 / trellis=2 / 8x8dct=1 / cqm=0 / deadzone=21,11 / fast_pskip=1 / chroma_qp_offset=-3 / threads=6 / lookahead_threads=1 / sliced_threads=0 / nr=0 / decimate=1 / interlaced=0 / bluray_compat=0 / constrained_intra=0 / bframes=10 / b_pyramid=2 / b_adapt=2 / b_bias=0 / direct=3 / weightb=1 / open_gop=0 / weightp=2 / keyint=240 / keyint_min=23 / scenecut=40 / intra_refresh=0 / rc_lookahead=40 / rc=2pass / mbtree=1 / bitrate=1138 / ratetol=1.0 / qcomp=0.60 / qpmin=0 / qpmax=69 / qpstep=4 / cplxblur=20.0 / qblur=0.5 / vbv_maxrate=50000 / vbv_bufsize=62500 / nal_hrd=none / filler=0 / ip_ratio=1.40 / aq=1:1.00
Язык : English
Default : Да
Forced : Нет

Аудио #1
Идентификатор : 2
Формат : AC-3
Формат/Информация : Audio Coding 3
Расширение режима : CM (complete main)
Параметр Endianness формата : Big
Идентификатор кодека : A_AC3
Продолжительность : 1 ч. 40 м.
Вид битрейта : Постоянный
Битрейт : 448 Кбит/сек
Каналы : 6 каналов
Расположение каналов : Front: L C R, Side: L R, LFE
Частота : 48,0 КГц
Частота кадров : 31,250 кадров/сек (1536 spf)
Битовая глубина : 16 бит
Метод сжатия : С потерями
Размер потока : 322 Мбайт (22%)
Заголовок : License
Язык : Russian
Default : Да
Forced : Нет

Аудио #2
Идентификатор : 3
Формат : AC-3
Формат/Информация : Audio Coding 3
Расширение режима : CM (complete main)
Параметр Endianness формата : Big
Идентификатор кодека : A_AC3
Продолжительность : 1 ч. 40 м.
Вид битрейта : Постоянный
Битрейт : 448 Кбит/сек
Каналы : 6 каналов
Расположение каналов : Front: L C R, Side: L R, LFE
Частота : 48,0 КГц
Частота кадров : 31,250 кадров/сек (1536 spf)
Битовая глубина : 16 бит
Метод сжатия : С потерями
Размер потока : 322 Мбайт (22%)
Заголовок : Original
Язык : English
Default : Нет
Forced : Нет

Текст #1
Идентификатор : 4
Формат : UTF-8
Идентификатор кодека : S_TEXT/UTF8
Идентификатор кодека/Информация : UTF-8 Plain Text
Продолжительность : 1 ч. 38 м.
Битрейт : 0 бит/сек
Count of elements : 6
Размер потока : 217 байт (0%)
Заголовок : Forced
Язык : Russian
Default : Да
Forced : Нет

Текст #2
Идентификатор : 5
Формат : UTF-8
Идентификатор кодека : S_TEXT/UTF8
Идентификатор кодека/Информация : UTF-8 Plain Text
Продолжительность : 1 ч. 39 м.
Битрейт : 80 бит/сек
Count of elements : 1552
Размер потока : 59,1 Кбайт (0%)
Заголовок : Full
Язык : Russian
Default : Нет
Forced : Нет

Текст #3
Идентификатор : 6
Формат : UTF-8
Идентификатор кодека : S_TEXT/UTF8
Идентификатор кодека/Информация : UTF-8 Plain Text
Продолжительность : 1 ч. 39 м.
Битрейт : 65 бит/сек
Count of elements : 1593
Размер потока : 48,1 Кбайт (0%)
Заголовок : Full
Язык : English
Default : Нет
Forced : Нет

Текст #4
Идентификатор : 7
Формат : UTF-8
Идентификатор кодека : S_TEXT/UTF8
Идентификатор кодека/Информация : UTF-8 Plain Text
Продолжительность : 1 ч. 40 м.
Битрейт : 75 бит/сек
Count of elements : 1844
Размер потока : 55,5 Кбайт (0%)
Заголовок : SDH
Язык : English
Default : Нет
Forced : Нет

Меню
00:00:00.000 : en:Chapter 1
00:02:30.149 : en:Chapter 2
00:10:48.064 : en:Chapter 3
00:14:14.395 : en:Chapter 4
00:20:26.475 : en:Chapter 5
00:25:15.305 : en:Chapter 6
00:29:19.716 : en:Chapter 7
00:34:52.798 : en:Chapter 8
00:41:21.103 : en:Chapter 9
00:45:27.933 : en:Chapter 10
00:48:32.534 : en:Chapter 11
00:54:41.694 : en:Chapter 12
00:58:25.418 : en:Chapter 13
01:05:52.656 : en:Chapter 14
01:10:03.115 : en:Chapter 15
01:15:45.957 : en:Chapter 16
01:21:58.246 : en:Chapter 17
01:28:25.216 : en:Chapter 18
01:31:46.000 : en:Chapter 19
01:37:55.744 : en:Chapter 20

pb.wtf



Скачать Правда или действие через торрент http://pic1.kartinco.top/images/11/yitxj.jpg Скачать фильм Правда или действие через торрент бесплантно в хорошем качестве Описание: Обычная игра «Правда или действие» превращается в жестокую гонку со смертью, когда к процессу подключается нечто ... 9.8 10 10
Торрент: Зарегистрирован [2018-08-28 12:16] · скачан: 217 раз
Статус: √ проверено
Размер: 1.43 GB
Как cкачать? Как скачать Правда или действие через торрент | qTorrent

% Раздел Тема Автор DL S | L
Фильмы [HD 720p, 1080p] (Хороший звук DUB, MVO) [ 7.73 GB ] Правда или действие / Truth or Dare [2018 BDRip 1080p] [Расширенная версия] DUB [] bober100 Скачать
1 | 0
Фильмы (Blu-ray, BD-Remux, HDDVD) [ 27.77 GB ] Правда или действие / Truth or Dare [2018 BD Remux 1080p] [Расширенная версия] DUB [] bober100 Скачать
1 | 0
Фильмы [HD 720p, 1080p] (Хороший звук DUB, MVO) [ 4.52 GB ] Правда или действие / Truth or Dare [2018 BDRip 720p] [Расширенная версия] DUB [] bober100 Скачать
2 | 0
Фильмы 2018 [DVDrip, WEB-DLRip, HDrip] (DUB, MVO) [ 748 MB ] Правда или действие / Truth or Dare [2018 HDRip] DUB [ BD EUR] bober100 Скачать
1 | 0
Фильмы 2018 [DVDrip, WEB-DLRip, HDrip] (DUB, MVO) [ 1.46 GB ] Правда или действие / Truth or Dare [2018 BDRip] DUB [ BD EUR] bober100 Скачать
2 | 0
Ultra HD (UHD: 2K, 4K, 8K) — видео сверхвысокой чёткости [ 21.17 GB ] Правда или действие / Truth or Dare [2018 UHD WEBRip 2160p] - sheker187 Скачать
1 | 0
Фильмы 2018 [DVDrip, WEB-DLRip, HDrip] (DUB, MVO) [ 1.46 GB ] Правда или действие / Truth or Dare [2018 BDRip] - [] Twi7ter Скачать
1 | 0

28-11-2019 20:33  

Отключить всю рекламу на сайте

28-08-2018 14:04 Правда или действие Скачать торрент  

Из-за четвертого скрина сакачаю и посмотрю. XDpb.wtf



31-08-2018 13:37 Правда или действие Скачать торрент  

Porki66 писал(а):

Из-за четвертого скрина сакачаю и посмотрю. XD

)))
Отпишись потом)))pb.wtf



31-08-2018 13:43 Правда или действие Скачать торрент  

Фильм на раз посмотрел и забыл.pb.wtf



    Дорогой пользователь! Огромная просьба, поблагодарите релизера, оцените раздачу и оставьте свои комментарий, если Вы скачали Правда или действие через торрент бесплатно! Внесите свою лепту в развитие PiratBit!
    Комментировать посты могут только пользователи прошедшие не сложную регистрацию
    Показать сообщения:    

    Правда или действие через торрент
    Скачать бесплатно Правда или действие
    Правда или действие скачать торрент
    Правда или действие смотреть онлайн
    Cкачать фильм Правда или действие бесплатно
    Правда или действие скачать торрент в хорошем качестве
    Правда или действие смотреть онлайн бесплатно в хорошем качестве


    Вы не можете начинать темы
    Вы не можете отвечать на сообщения
    Вы не можете редактировать свои сообщения
    Вы не можете удалять свои сообщения
    Вы не можете голосовать в опросах
    Вы не можете прикреплять файлы к сообщениям
    Вы можете скачивать файлы