Ссылка на приватное зеркало нашего сайта всего за 1$. Внимание количество ограничено!!!

2 сезон

iTunes

1 сезон

1

2 сезон

2 сезон

iTunes

1 сезон

RePack

30

Новинка

ВАЖНО

ИГРА 18+

pack

RePack

MK11
pack

Забери бонус

RePack

jed

!!Акция!!

Alien_Rage

RePack

fifa19

RePack

Assassins Creed: Odyssey

RePack

NEED FOR SPEED™ PAYBACK

4 сезон

9 сезон

Бесстыжие 9 сезон

Все сериалы

все сериалы на PB.wtf

RePack

FAR CRY 5
  

Правда или действие / Truth or Dare (Джефф Уодлоу) [2018, Ужасы, триллер, BD Remux 1080p] [Расширенная версия] DUB [Лицензия] pb.wtf

Правда или действие через торрент pb.wtf

Размер: 27.77 GB | Добавлен: 2 года 2 мес. назад | Торрент скачан:51 раз
Скачать  

28-08-2018 15:13 Правда или действие Скачать торрент  

Правда или действие / Truth or Dare
Год выпуска: 2018
Страна: США
Жанр: Ужасы, триллер
Продолжительность: 01:40:32
Перевод: Дублированный | Лицензия
Субтитры: Русские (Forced, full), английские

Режиссер: Джефф Уодлоу

rating

В ролях:

Люси Хейл, Тайлер Пози, Вайолетт Бин, Софи Тэйлор Али, Нолан Джерард Фанк, Лэндон Либуарон, Сэм Лернер, Гари Энтони Уильямс, Хейден Сзето

Описание:

Обычная игра «Правда или действие» превращается в жестокую гонку со смертью, когда к процессу подключается нечто сверхъестественное. Стоит кому-то из участников соврать или не выполнить положенное действие, его ждет жестокая расправа. Кто в итоге сможет выйти победителем в жестокой игре?

Качество: BD Remux 1080p | Расширенная версия
Формат: MKV

Видео: MPEG-4 AVC, 1920x1080, 34.5 Mbit/s, 23.976 fps
Аудио#1: 48 kHz, DTS, 5.1, 768 Kbps | Дублированный | RUS |
Аудио#2: 48 kHz, AC3, 5.1, 448 Kbps | Дублированный | RUS |
Аудио#3: 48 kHz, DTS-HD MA, 5.1, 3840 Kbps | Оригинал | ENG |

General
Unique ID : 24782718908138122928008708623258305952 (0x12A4FA6125BB31978F81A528688B45A0)
Complete name : F:Video1Truth.or.Dare.2018.BDREMUX.1080p.ExKinoRay.mkv
Format : Matroska
Format version : Version 4 / Version 2
File size : 27.8 GiB
Duration : 1 h 40 min
Overall bit rate mode : Variable
Overall bit rate : 39.5 Mb/s
Movie name : Truth or Dare 2018 from ExKinoRay
Encoded date : UTC 2018-08-28 14:06:40
Writing application : mkvmerge v23.0.0 ('The Bride Said No') 64-bit
Writing library : libebml v1.3.6 + libmatroska v1.4.9

Video
ID : 1
Format : AVC
Format/Info : Advanced Video Codec
Format profile : High@L4.1
Format settings : CABAC / 4 Ref Frames
Format settings, CABAC : Yes
Format settings, ReFrames : 4 frames
Codec ID : V_MPEG4/ISO/AVC
Duration : 1 h 40 min
Bit rate mode : Variable
Bit rate : 34.5 Mb/s
Maximum bit rate : 39.0 Mb/s
Width : 1 920 pixels
Height : 1 080 pixels
Display aspect ratio : 16:9
Frame rate mode : Constant
Frame rate : 23.976 (24000/1001) FPS
Color space : YUV
Chroma subsampling : 4:2:0
Bit depth : 8 bits
Scan type : Progressive
Bits/(Pixel*Frame) : 0.694
Stream size : 24.2 GiB (87%)
Language : English
Default : Yes
Forced : No

Audio #1
ID : 2
Format : DTS
Format/Info : Digital Theater Systems
Codec ID : A_DTS
Duration : 1 h 40 min
Bit rate mode : Constant
Bit rate : 768 kb/s
Channel(s) : 6 channels
Channel positions : Front: L C R, Side: L R, LFE
Sampling rate : 48.0 kHz
Frame rate : 93.750 FPS (512 SPF)
Bit depth : 24 bits
Compression mode : Lossy
Stream size : 552 MiB (2%)
Title : License
Language : Russian
Default : Yes
Forced : Yes

Audio #2
ID : 3
Format : AC-3
Format/Info : Audio Coding 3
Commercial name : Dolby Digital
Codec ID : A_AC3
Duration : 1 h 40 min
Bit rate mode : Constant
Bit rate : 448 kb/s
Channel(s) : 6 channels
Channel positions : Front: L C R, Side: L R, LFE
Sampling rate : 48.0 kHz
Frame rate : 31.250 FPS (1536 SPF)
Bit depth : 16 bits
Compression mode : Lossy
Stream size : 322 MiB (1%)
Title : License
Language : Russian
Service kind : Complete Main
Default : No
Forced : No

Audio #3
ID : 4
Format : DTS
Format/Info : Digital Theater Systems
Format profile : MA / Core
Codec ID : A_DTS
Duration : 1 h 40 min
Bit rate mode : Variable / Constant
Bit rate : 3 840 kb/s / 1 509 kb/s
Channel(s) : 6 channels
Channel positions : Front: L C R, Side: L R, LFE
Sampling rate : 48.0 kHz
Frame rate : 93.750 FPS (512 SPF)
Bit depth : 24 bits
Compression mode : Lossless / Lossy
Stream size : 2.69 GiB (10%)
Title : Original
Language : English
Default : No
Forced : No

Text #1
ID : 5
Format : UTF-8
Codec ID : S_TEXT/UTF8
Codec ID/Info : UTF-8 Plain Text
Duration : 1 h 38 min
Bit rate : 0 b/s
Count of elements : 6
Stream size : 213 Bytes (0%)
Title : Forced
Language : Russian
Default : Yes
Forced : Yes

Text #2
ID : 6
Format : UTF-8
Codec ID : S_TEXT/UTF8
Codec ID/Info : UTF-8 Plain Text
Duration : 1 h 39 min
Bit rate : 80 b/s
Count of elements : 1552
Stream size : 58.9 KiB (0%)
Title : Full
Language : Russian
Default : No
Forced : No

Text #3
ID : 7
Format : UTF-8
Codec ID : S_TEXT/UTF8
Codec ID/Info : UTF-8 Plain Text
Duration : 1 h 39 min
Bit rate : 63 b/s
Count of elements : 1516
Stream size : 46.1 KiB (0%)
Title : Full
Language : English
Default : No
Forced : No

Menu
00:00:00.000 : en:00:00:00.000
00:02:30.150 : en:00:02:30.150
00:10:48.064 : en:00:10:48.064
00:14:14.395 : en:00:14:14.395
00:20:26.475 : en:00:20:26.475
00:25:15.305 : en:00:25:15.305
00:29:19.716 : en:00:29:19.716
00:34:52.799 : en:00:34:52.799
00:41:21.104 : en:00:41:21.104
00:45:27.933 : en:00:45:27.933
00:48:32.534 : en:00:48:32.534
00:54:41.695 : en:00:54:41.695
00:58:25.418 : en:00:58:25.418
01:05:52.657 : en:01:05:52.657
01:10:03.115 : en:01:10:03.115
01:15:45.958 : en:01:15:45.958
01:21:58.246 : en:01:21:58.246
01:28:25.216 : en:01:28:25.216
01:31:46.000 : en:01:31:46.000
01:37:55.745 : en:01:37:55.745

pb.wtf



Скачать Правда или действие через торрент https://img11.lostpic.net/2018/07/05/d726b9aab9670e4e65d433cdacecd615.jpg Скачать фильм Правда или действие через торрент бесплантно в хорошем качестве Описание: Обычная игра «Правда или действие» превращается в жестокую гонку со смертью, когда к процессу подключается нечто ... 10 10 4
Торрент: Зарегистрирован [2018-08-28 15:13] · скачан: 51 раз
Статус: √ проверено
Размер: 27.77 GB
Как cкачать? Как скачать Правда или действие через торрент | qTorrent

% Раздел Тема Автор DL S | L
Фильмы [HD 720p, 1080p] (Хороший звук DUB, MVO) [ 7.73 GB ] Правда или действие / Truth or Dare [2018 BDRip 1080p] [Расширенная версия] DUB [] bober100 Скачать
1 | 0
Фильмы 2018 [DVDrip, WEB-DLRip, HDrip] (DUB, MVO) [ 1.43 GB ] Правда или действие / Truth or Dare [2018 BDRip-AVC] [Расширенная версия] DUB [] bober100 Скачать
1 | 0
Фильмы [HD 720p, 1080p] (Хороший звук DUB, MVO) [ 4.52 GB ] Правда или действие / Truth or Dare [2018 BDRip 720p] [Расширенная версия] DUB [] bober100 Скачать
1 | 0
Фильмы 2018 [DVDrip, WEB-DLRip, HDrip] (DUB, MVO) [ 748 MB ] Правда или действие / Truth or Dare [2018 HDRip] DUB [ BD EUR] bober100 Скачать
1 | 0
Фильмы 2018 [DVDrip, WEB-DLRip, HDrip] (DUB, MVO) [ 1.46 GB ] Правда или действие / Truth or Dare [2018 BDRip] DUB [ BD EUR] bober100 Скачать
1 | 0
Ultra HD (UHD: 2K, 4K, 8K) — видео сверхвысокой чёткости [ 21.17 GB ] Правда или действие / Truth or Dare [2018 UHD WEBRip 2160p] - sheker187 Скачать
1 | 0
Фильмы 2018 [DVDrip, WEB-DLRip, HDrip] (DUB, MVO) [ 1.46 GB ] Правда или действие / Truth or Dare [2018 BDRip] - [] Twi7ter Скачать
1 | 0

28-11-2019 20:33  

Отключить всю рекламу на сайте

    Дорогой пользователь! Огромная просьба, поблагодарите релизера, оцените раздачу и оставьте свои комментарий, если Вы скачали Правда или действие через торрент бесплатно! Внесите свою лепту в развитие PiratBit!
    Комментировать посты могут только пользователи прошедшие не сложную регистрацию
    Показать сообщения:    

    Правда или действие через торрент
    Скачать бесплатно Правда или действие
    Правда или действие скачать торрент
    Правда или действие смотреть онлайн
    Cкачать фильм Правда или действие бесплатно
    Правда или действие скачать торрент в хорошем качестве
    Правда или действие смотреть онлайн бесплатно в хорошем качестве


    Вы не можете начинать темы
    Вы не можете отвечать на сообщения
    Вы не можете редактировать свои сообщения
    Вы не можете удалять свои сообщения
    Вы не можете голосовать в опросах
    Вы не можете прикреплять файлы к сообщениям
    Вы можете скачивать файлы