Ссылка на приватное зеркало нашего сайта всего за 1$. Внимание количество ограничено!!!

2 сезон

iTunes

1 сезон

1

2 сезон

2 сезон

iTunes

1 сезон

RePack

30

Ultimate

ВАЖНО

ИГРА 18+

pack

RePack

MK11
pack

Забери бонус

RePack

jed

!!Акция!!

Alien_Rage

RePack

fifa19

RePack

Assassins Creed: Odyssey

RePack

NEED FOR SPEED™ PAYBACK

4 сезон

9 сезон

Бесстыжие 9 сезон

Все сериалы

все сериалы на PB.wtf

RePack

FAR CRY 5
  

Истории призраков / Ghost Stories (Джереми Дайсон, Энди Найман) [2017, Ужасы, драма, BD Remux 1080p] DUB [iTunes] pb.wtf

Истории призраков через торрент pb.wtf

Размер: 22.04 GB | Добавлен: 2 года 3 мес. назад | Торрент скачан:79 раз
Скачать  

28-08-2018 15:26 Истории призраков Скачать торрент  

Истории призраков / Ghost Stories
Год выпуска: 2017
Страна: Великобритания
Жанр: Ужасы, драма
Продолжительность: 01:37:44
Перевод: Дублированный | iTunes
Субтитры: Русские (full), английские

Режиссер: Джереми Дайсон, Энди Найман

rating

В ролях:

Энди Найман, Мартин Фриман, Пол Уайтхаус, Алекс Лоутер, Пол Уоррен, Кобна Холдбрук-Смит, Николас Барнс, Луиз Аткинс, Лесли Харкорт, Эми Дойл

Описание:

Профессор психологии Гудман изучает историю трех человек, которые якобы столкнулись со сверхъестественным: ночного сторожа, подростка и бизнесмена. Скептически настроенный профессор превращается из наблюдателя в активного участника, когда получает послание с того света.

Качество: BD Remux 1080p
Формат: MKV

Видео: MPEG-4 AVC, 1920x1080, 29.8 Mbit/s, 24.000 fps
Аудио#1: 48 kHz, AC3, 5.1, 384 Kbps | iTunes | RUS |
Аудио#2: 48 kHz, DTS-HD MA, 5.1, 2144 Kbps | Оригинал | ENG |
скриншот  скриншот  скриншот  скриншот  скриншот  

General
Unique ID : 151090647768645655189785068616231707791 (0x71AB0012B50E0E9E3174C810D000648F)
Complete name : D:Video111Ghost.Stories.2017.BDREMUX.1080p.ExKinoRay.mkv
Format : Matroska
Format version : Version 4 / Version 2
File size : 22.0 GiB
Duration : 1 h 37 min
Overall bit rate mode : Variable
Overall bit rate : 32.3 Mb/s
Movie name : Ghost Stories 2017 from ExKinoRay
Encoded date : UTC 2018-08-28 14:55:10
Writing application : mkvmerge v23.0.0 ('The Bride Said No') 64-bit
Writing library : libebml v1.3.6 + libmatroska v1.4.9

Video
ID : 1
Format : AVC
Format/Info : Advanced Video Codec
Format profile : High@L4.1
Format settings : CABAC / 4 Ref Frames
Format settings, CABAC : Yes
Format settings, ReFrames : 4 frames
Codec ID : V_MPEG4/ISO/AVC
Duration : 1 h 37 min
Bit rate mode : Variable
Bit rate : 29.8 Mb/s
Maximum bit rate : 33.0 Mb/s
Width : 1 920 pixels
Height : 1 080 pixels
Display aspect ratio : 16:9
Frame rate mode : Constant
Frame rate : 24.000 FPS
Color space : YUV
Chroma subsampling : 4:2:0
Bit depth : 8 bits
Scan type : Progressive
Bits/(Pixel*Frame) : 0.598
Stream size : 20.3 GiB (92%)
Language : English
Default : Yes
Forced : No

Audio #1
ID : 2
Format : AC-3
Format/Info : Audio Coding 3
Commercial name : Dolby Digital
Codec ID : A_AC3
Duration : 1 h 37 min
Bit rate mode : Constant
Bit rate : 384 kb/s
Channel(s) : 6 channels
Channel positions : Front: L C R, Side: L R, LFE
Sampling rate : 48.0 kHz
Frame rate : 31.250 FPS (1536 SPF)
Bit depth : 16 bits
Compression mode : Lossy
Stream size : 268 MiB (1%)
Title : iTunes
Language : Russian
Service kind : Complete Main
Default : Yes
Forced : Yes

Audio #2
ID : 3
Format : DTS
Format/Info : Digital Theater Systems
Format profile : MA / Core
Codec ID : A_DTS
Duration : 1 h 37 min
Bit rate mode : Variable / Constant
Bit rate : 2 144 kb/s / 1 509 kb/s
Channel(s) : 6 channels
Channel positions : Front: L C R, Side: L R, LFE
Sampling rate : 48.0 kHz
Frame rate : 93.750 FPS (512 SPF)
Bit depth : 16 bits
Compression mode : Lossless / Lossy
Stream size : 1.46 GiB (7%)
Title : Original
Language : English
Default : No
Forced : No

Text #1
ID : 4
Format : UTF-8
Codec ID : S_TEXT/UTF8
Codec ID/Info : UTF-8 Plain Text
Duration : 1 h 30 min
Bit rate : 69 b/s
Count of elements : 979
Stream size : 46.5 KiB (0%)
Title : Full
Language : Russian
Default : No
Forced : No

Text #2
ID : 5
Format : UTF-8
Codec ID : S_TEXT/UTF8
Codec ID/Info : UTF-8 Plain Text
Duration : 1 h 30 min
Bit rate : 42 b/s
Count of elements : 902
Stream size : 28.3 KiB (0%)
Title : Full
Language : English
Default : No
Forced : No

Text #3
ID : 6
Format : UTF-8
Codec ID : S_TEXT/UTF8
Codec ID/Info : UTF-8 Plain Text
Duration : 1 h 32 min
Bit rate : 46 b/s
Count of elements : 1063
Stream size : 31.6 KiB (0%)
Title : SDH
Language : English
Default : No
Forced : No

Menu #1
00:00:00.000 : en:00:00:00.000
00:07:53.208 : en:00:07:53.208
00:15:05.542 : en:00:15:05.542
00:26:07.000 : en:00:26:07.000
00:36:25.958 : en:00:36:25.958
00:39:51.000 : en:00:39:51.000
00:47:26.375 : en:00:47:26.375
00:58:00.000 : en:00:58:00.000
01:00:41.333 : en:01:00:41.333
01:05:58.583 : en:01:05:58.583
01:17:30.167 : en:01:17:30.167
01:23:53.792 : en:01:23:53.792

pb.wtf



Скачать Истории призраков через торрент http://img11.lostpic.net/2018/08/06/5af86afb243847f9e32d62841261f679.jpg Скачать фильм Истории призраков через торрент бесплантно в хорошем качестве Описание: Профессор психологии Гудман изучает историю трех человек, которые якобы столкнулись со сверхъестественным: ночного сторожа, ... 10 10 4
Торрент: Зарегистрирован [2018-08-28 15:26] · скачан: 79 раз
Статус: √ проверено
Размер: 22.04 GB
Как cкачать? Как скачать Истории призраков через торрент | qTorrent

% Раздел Тема Автор DL S | L
Фильмы 2017 [DVDrip, WEB-DLRip, HDrip] (DUB, MVO) [ 1.42 GB ] Истории призраков / Ghost Stories [2017 BDRip] - Twi7ter Скачать
1 | 0
Фильмы 2017 [DVDrip, WEB-DLRip, HDrip] (DUB, MVO) [ 1.46 GB ] Истории призраков / Ghost Stories [2017 WEB-DLRip-AVC] bober100 Скачать
4 | 0
T Фильмы (мультфильмы) cо спонсором показа (Новинки AVI/MKV) [ 2.84 GB ] Баньши: история ирландских призраков / Banshee Blacktop an Irish Ghost Story [2016 WEB-DL 720p] MVO [КОЛОБОК] bober100 Скачать
1 | 0
T Фильмы (мультфильмы) cо спонсором показа (Новинки AVI/MKV) [ 1.36 GB ] Баньши: история ирландских призраков / Banshee Blacktop an Irish Ghost Story [2016 WEB-DLRip] MVO [КОЛОБОК] bober100 Скачать
1 | 0
Фильмы [HD 720p, 1080p] (Хороший звук DUB, MVO) [ 8.86 GB ] Истории призраков / Ghost Stories [2017 BDRip 1080p] bober100 Скачать
1 | 0
Фильмы 2017 [DVDrip, WEB-DLRip, HDrip] (DUB, MVO) [ 1.42 GB ] Истории призраков / Ghost Stories [2017 BDRip] bober100 Скачать
1 | 0
Фильмы (WEB-DL 720p, 1080p) [ 3.63 GB ] Истории призраков / Ghost Stories [2017 WEB-DL 1080p] [Локализованная версия] killermax2013 Скачать
2 | 0

28-11-2019 20:33  

Отключить всю рекламу на сайте

    Дорогой пользователь! Огромная просьба, поблагодарите релизера, оцените раздачу и оставьте свои комментарий, если Вы скачали Истории призраков через торрент бесплатно! Внесите свою лепту в развитие PiratBit!
    Комментировать посты могут только пользователи прошедшие не сложную регистрацию
    Показать сообщения:    

    Истории призраков через торрент
    Скачать бесплатно Истории призраков
    Истории призраков скачать торрент
    Истории призраков смотреть онлайн
    Cкачать фильм Истории призраков бесплатно
    Истории призраков скачать торрент в хорошем качестве
    Истории призраков смотреть онлайн бесплатно в хорошем качестве


    Вы не можете начинать темы
    Вы не можете отвечать на сообщения
    Вы не можете редактировать свои сообщения
    Вы не можете удалять свои сообщения
    Вы не можете голосовать в опросах
    Вы не можете прикреплять файлы к сообщениям
    Вы можете скачивать файлы