Ссылка на приватное зеркало всего за 1$. Внимание количество ограничено!!!

iTunes

1+1

iTunes

мы

WEB-DL

1

iTunes

Чернобыль

iTunes

Ральф против интернета

Лицензия

ПШазам

Лицензия

Оно 2

Лицензия

30
pack

Вам бонус

ВАЖНО

!!Акция!!

Alien_RageХит недели

RePack

Resident Evil 21

ИГРА 18+

pack

RePack

jed

!!Акция!!

Alien_Rage

RePack

fifa19

RePack

Assassins Creed: Odyssey

RePack

NEED FOR SPEED™ PAYBACK

3 сезон

9 сезон

Бесстыжие 9 сезон

Все сериалы

все сериалы на PB.wtf

RePack

FAR CRY 5
Ребята, катастрофически не хватает 1900р. для оплаты серверов за Октябрь (всвязи с блокировками трафик упал в 3 раза), 1-2р., выручайте.
  

Вкус хлеба (Алексей Сахаров) [1979 г., Драма, киноповесть, SATRip-AVC] pb.wtf

Вкус хлеба через торрент pb.wtf

Размер: 4.52 GB | Добавлен: 1 год 3 мес. назад | Торрент скачан:5 раз
Скачать  

28-08-2018 18:35 Вкус хлеба Скачать торрент  

Вкус хлеба
Год выпуска: 1979
Страна: СССР
Жанр: Драма, киноповесть
Продолжительность: 01:19:37 + 01:07:40 + 01:13:21 + 01:14:03
Субтитры: Отсутствуют

Режиссер: Алексей Сахаров

rating

В ролях: Сергей Шакуров, Валерий Рыжаков, Эрнст Романов, Николай Ерёменко (ст.), Идрис Ногайбаев, Наталья Аринбасарова, Анатолий Азо, Асанали Ашимов, Нуржуман Ихтымбаев, Леонид Дьячков, Иван Агафонов, Евгений Буренков, Любовь Полехина, Амина Умурзакова, Светлана Харитонова, Зоя Василькова, Сергей Плотников, Николай Шутько, Виктор Мамаев, Елена Ткачёва, Александра Дорохина, Байкенже (Байкал) Бельбаев, Валентин Голубенко, Николай Смирнов, Анатолий Скорякин, Алексей Ванин, Юрий Мартынов, Александр Солопов (старший), Александр Лебедев, Юрий Дуванов, Сергей Габниа, Макиль Куланбаев, Александр Пятков, Николай Двигубский, Олег Измайлов, Раимбек Сейтметов

Описание: Посвящен целинникам и состоит из четырех фильмов: "Хлеб наш насущный", "Хлеб и земля", "Хлеб и люди", "Хлеб отечества".
Все действие построено на раскрытии судеб трех героев: директора совхоза Степана Сечкина, партийного работника Владимира Ерошина и ученого-агронома Сергея Игнатьева.

Качество: SATRip-AVC
Формат: MKV
Видео кодек: AVC
Аудио кодек: AC3
Видео: MPEG-4 AVC, (1,4) 700х372@800x372, (2,3) 698х372@800x372, 25 fps, 2000 Кбит/с
Аудио#1: AC3 , 2 ch , 48 kHz , 192 kbps
скриншот   скриншот   скриншот   скриншот  

Общее
Уникальный идентификатор : 213055043357698324398796938951619485851 (0xA048E8A5D744C5279662B82450EBA09B)
Полное имя : H:СССРВкус хлеба 1979_SATRip-AVCВкус хлеба 1 серия 1979_SATRip-AVC.mkv
Формат : Matroska
Версия формата : Version 2
Размер файла : 1,22 Гбайт
Продолжительность : 1 ч. 19 м.
Общий поток : 2193 Кбит/сек
Дата кодирования : UTC 2018-08-24 17:18:39
Программа кодирования : mkvmerge v5.8.0 ('No Sleep / Pillow') built on Sep 2 2012 15:37:04
Библиотека кодирования : libebml v1.2.3 + libmatroska v1.3.0

Видео
Идентификатор : 1
Формат : AVC
Формат/Информация : Advanced Video Codec
Профиль формата : High@L4.1
Настройки формата : CABAC / 15 Ref Frames
Параметр CABAC формата : Да
Параметр RefFrames формата : 15 кадров
Идентификатор кодека : V_MPEG4/ISO/AVC
Продолжительность : 1 ч. 19 м.
Битрейт : 2000 Кбит/сек
Ширина : 700 пикселей
Высота : 372 пикселя
Соотношение сторон : 2,2:1
Режим частоты кадров : Постоянный
Частота кадров : 25,000 кадров/сек
Цветовое пространство : YUV
Субдискретизация насыщенности : 4:2:0
Битовая глубина : 8 бит
Тип развёртки : Прогрессивная
Бит/(Пиксели*Кадры) : 0.307
Размер потока : 1,09 Гбайт (89%)
Библиотека кодирования : x264 core 152 r2851kMod ba24899
Настройки программы : cabac=1 / ref=15 / deblock=1:-2:-2 / analyse=0x3:0x133 / me=umh / subme=11 / psy=1 / fade_compensate=0.00 / psy_rd=1.05:0.10 / mixed_ref=1 / me_range=48 / chroma_me=1 / trellis=2 / 8x8dct=1 / cqm=0 / deadzone=21,11 / fast_pskip=0 / chroma_qp_offset=-3 / threads=12 / lookahead_threads=2 / sliced_threads=0 / nr=0 / decimate=0 / interlaced=0 / bluray_compat=0 / constrained_intra=0 / bframes=10 / b_pyramid=2 / b_adapt=2 / b_bias=0 / direct=3 / weightb=1 / open_gop=0 / weightp=2 / keyint=250 / keyint_min=25 / scenecut=40 / intra_refresh=0 / rc_lookahead=40 / rc=2pass / mbtree=0 / bitrate=2000 / ratetol=1.0 / qcomp=0.60 / qpmin=0 / qpmax=39 / qpstep=4 / cplxblur=20.0 / qblur=0.5 / vbv_maxrate=50000 / vbv_bufsize=62500 / nal_hrd=none / filler=0 / ip_ratio=1.25 / pb_ratio=1.30 / aq=1:1.00
Язык : English
Default : Да
Forced : Нет
Цветовой диапазон : Limited
Основные цвета : BT.601 PAL
Характеристики трансфера : BT.470 System B, BT.470 System G
Коэффициенты матрицы : BT.470 System B, BT.470 System G

Аудио
Идентификатор : 2
Формат : AC-3
Формат/Информация : Audio Coding 3
Параметр Endianness формата : Big
Идентификатор кодека : A_AC3
Продолжительность : 1 ч. 19 м.
Вид битрейта : Постоянный
Битрейт : 192 Кбит/сек
Каналы : 2 канала
Расположение каналов : Front: L R
Частота : 48,0 КГц
Частота кадров : 31,250 кадров/сек (1536 SPF)
Битовая глубина : 16 бит
Метод сжатия : С потерями
Задержка видео : 18 мс.
Размер потока : 109 Мбайт (9%)
Default : Да
Forced : Нет

pb.wtf



Скачать Вкус хлеба через торрент http://pic1.kartinco.top/images/11/q513v.jpg Скачать фильм Вкус хлеба через торрент бесплантно в хорошем качестве Описание: Посвящен целинникам и состоит из четырех фильмов: "Хлеб наш насущный", "Хлеб и земля", "Хлеб и люди", "Хлеб отечества".Все ... 10 10 1
Info! Золотая раздача, скачанное не засчитывается.
Торрент: Зарегистрирован [2018-08-28 18:35] · скачан: 5 раз
Статус: √ проверено
Размер: 4.52 GB
Как cкачать? Как скачать Вкус хлеба через торрент | qTorrent

28-11-2019 20:33  

Отключить всю рекламу на сайте

    Дорогой пользователь! Огромная просьба, поблагодарите релизера, оцените раздачу и оставьте свои комментарий, если Вы скачали Вкус хлеба через торрент бесплатно! Внесите свою лепту в развитие PiratBit!
    Комментировать посты могут только пользователи прошедшие не сложную регистрацию
    Показать сообщения:    

    Вкус хлеба через торрент
    Скачать бесплатно Вкус хлеба
    Вкус хлеба скачать торрент
    Вкус хлеба смотреть онлайн
    Cкачать фильм Вкус хлеба бесплатно
    Вкус хлеба скачать торрент в хорошем качестве
    Вкус хлеба смотреть онлайн бесплатно в хорошем качестве


    Вы не можете начинать темы
    Вы не можете отвечать на сообщения
    Вы не можете редактировать свои сообщения
    Вы не можете удалять свои сообщения
    Вы не можете голосовать в опросах
    Вы не можете прикреплять файлы к сообщениям
    Вы можете скачивать файлы