Мега распродажа FORZA HORIZON 4 ULTIMATE+ВСЕ DLC+ОНЛАЙН всего за 499р. 349 руб. (супер цена). Внимание количество ограничено!!!

iTunes

1+1

iTunes

мы

iTunes

1

1 сезон

Чернобыль

1 сезон

Ральф против интернета

Лицензия

ПШазам

8 сезон

Игра престолов

Лицензия

30
pack

ВАЖНО

!!Акция!!

Alien_RageХит недели

RePack

Resident Evil 21

ИГРА 18+

pack

RePack

Metro:Exodus

!!Акция!!

Alien_Rage

RePack

fifa19

RePack

Assassins Creed: Odyssey

RePack

NEED FOR SPEED™ PAYBACK

3 сезон

9 сезон

Бесстыжие 9 сезон

Все сериалы

все сериалы на PB.wtf

RePack

FAR CRY 5
Ребята, катастрофически не хватает 2730р. для оплаты серверов за ИЮНЬ (всвязи с блокировками трафик упал в 3 раза), 1-2р., выручайте.
  

Американские животные / American Animals (Барт Лэйтон) [2018, драма, криминал, BDRip-AVC] MVO [HDrezka Studio] pb.wtf

Американские животные через торрент pb.wtf

Раздают: 5 [ 0 KB/s ]
Размер: 2.06 GB | Добавлен: 10 мес. назад | Торрент скачан:895 раз
Скачать  

28-08-2018 19:06 Американские животные Скачать торрент  

Американские животные / American Animals
Год выпуска: 2018
Страна: Великобритания, США
Жанр: драма, криминал
Продолжительность: 01:56:54
Перевод: Профессиональный (многоголосый, закадровый) | HDrezka Studio
Субтитры: Русские, английские


Режиссер: Барт Лэйтон

rating

В ролях:

Эван Питерс, Энн Дауд, Барри Кеоган, Блейк Дженнер, Удо Кир, Джаред Абрахамсон, Дрю Старки, Уэйн Дювалл, Лара Грайс, Гэри Басараба

Описание:

История четырех молодых людей, которые предпринимают одно из самых дерзких ограблений в истории США. Они планируют украсть одну из самых дорогих книг в мире — «Птицы Америки» Джона Джеймса Одюбона.

Качество: BDRip-AVC
Формат: MKV

Видео: 1024x436 (2.40:1), 23,976 fps, x264 ~1 622 kbps avg, 0.152 bit/pixel
Аудио#1: 48 kHz, AC3 Dolby Digital, 3/2 (L,C,R,l,r) + LFE ch, ~448.00 kbps avg | RUS (HDRezka)
Аудио#2: 48 kHz, AC3 Dolby Digital, 3/2 (L,C,R,l,r) + LFE ch, ~448.00 kbps avg | ENG
скриншот  скриншот  скриншот  скриншот  скриншот  

Общее
Уникальный идентификатор : 316303256872812704460492835752782089763 (0xEDF5CA98A81ADFAD6684E67D74E04E23)
Полное имя : F:OlLanDGroupAmerican.Animals.2018.BDRip(AVC).OlLanDGroup.mkv
Формат : Matroska
Версия формата : Version 4 / Version 2
Размер файла : 2,06 Гбайт
Продолжительность : 1 ч. 56 м.
Общий поток : 2520 Кбит/сек
Название фильма : American.Animals.2018 #TorpedoUK#
Дата кодирования : UTC 2018-08-28 18:14:57
Программа кодирования : mkvmerge v25.0.0 ('Prog Noir') 64-bit
Библиотека кодирования : libebml v1.3.6 + libmatroska v1.4.9

Видео
Идентификатор : 1
Формат : AVC
Формат/Информация : Advanced Video Codec
Профиль формата : High@L4.1
Параметр CABAC формата : Да
Параметр ReFrames формата : 10 кадров
Идентификатор кодека : V_MPEG4/ISO/AVC
Продолжительность : 1 ч. 56 м.
Битрейт : 1622 Кбит/сек
Ширина : 1024 пикселя
Высота : 436 пикселей
Соотношение сторон : 2,35:1
Режим частоты кадров : Постоянный
Частота кадров : 23,976 (24000/1001) кадра/сек
Цветовое пространство : YUV
Субдискретизация насыщенности : 4:2:0
Битовая глубина : 8 бит
Тип развёртки : Прогрессивная
Бит/(Пиксели*Кадры) : 0.152
Размер потока : 1,32 Гбайт (64%)
Библиотека кодирования : x264 core 146 r2538 121396c
Настройки программы : cabac=1 / ref=10 / deblock=1:-3:-3 / analyse=0x3:0x113 / me=umh / subme=11 / psy=1 / psy_rd=0.97:0.05 / mixed_ref=1 / me_range=48 / chroma_me=1 / trellis=2 / 8x8dct=1 / cqm=0 / deadzone=21,11 / fast_pskip=1 / chroma_qp_offset=-3 / threads=6 / lookahead_threads=1 / sliced_threads=0 / nr=0 / decimate=1 / interlaced=0 / bluray_compat=0 / constrained_intra=0 / bframes=10 / b_pyramid=2 / b_adapt=2 / b_bias=0 / direct=3 / weightb=1 / open_gop=0 / weightp=2 / keyint=240 / keyint_min=23 / scenecut=40 / intra_refresh=0 / rc_lookahead=40 / rc=2pass / mbtree=1 / bitrate=1622 / ratetol=1.0 / qcomp=0.60 / qpmin=0 / qpmax=69 / qpstep=4 / cplxblur=20.0 / qblur=0.5 / vbv_maxrate=50000 / vbv_bufsize=62500 / nal_hrd=none / filler=0 / ip_ratio=1.40 / aq=1:1.00
Язык : English
Default : Да
Forced : Нет

Аудио #1
Идентификатор : 2
Формат : AC-3
Формат/Информация : Audio Coding 3
Расширение режима : CM (complete main)
Параметр Endianness формата : Big
Идентификатор кодека : A_AC3
Продолжительность : 1 ч. 56 м.
Вид битрейта : Постоянный
Битрейт : 448 Кбит/сек
Каналы : 6 каналов
Расположение каналов : Front: L C R, Side: L R, LFE
Частота : 48,0 КГц
Частота кадров : 31,250 кадров/сек (1536 spf)
Битовая глубина : 16 бит
Метод сжатия : С потерями
Размер потока : 375 Мбайт (18%)
Заголовок : MVO [HDRezka Studio]
Язык : Russian
Default : Да
Forced : Нет

Аудио #2
Идентификатор : 3
Формат : AC-3
Формат/Информация : Audio Coding 3
Расширение режима : CM (complete main)
Параметр Endianness формата : Big
Идентификатор кодека : A_AC3
Продолжительность : 1 ч. 56 м.
Вид битрейта : Постоянный
Битрейт : 448 Кбит/сек
Каналы : 6 каналов
Расположение каналов : Front: L C R, Side: L R, LFE
Частота : 48,0 КГц
Частота кадров : 31,250 кадров/сек (1536 spf)
Битовая глубина : 16 бит
Метод сжатия : С потерями
Размер потока : 375 Мбайт (18%)
Заголовок : Original
Язык : English
Default : Нет
Forced : Нет

Текст #1
Идентификатор : 4
Формат : UTF-8
Идентификатор кодека : S_TEXT/UTF8
Идентификатор кодека/Информация : UTF-8 Plain Text
Продолжительность : 1 ч. 51 м.
Битрейт : 90 бит/сек
Count of elements : 1412
Размер потока : 73,8 Кбайт (0%)
Заголовок : Full
Язык : Russian
Default : Нет
Forced : Нет

Текст #2
Идентификатор : 5
Формат : UTF-8
Идентификатор кодека : S_TEXT/UTF8
Идентификатор кодека/Информация : UTF-8 Plain Text
Продолжительность : 1 ч. 51 м.
Битрейт : 58 бит/сек
Count of elements : 1403
Размер потока : 48,2 Кбайт (0%)
Заголовок : Full
Язык : English
Default : Нет
Forced : Нет

Меню
00:00:00.000 : en:00:00:00.000
00:06:57.584 : en:00:06:57.584
00:14:58.856 : en:00:14:58.856
00:21:21.947 : en:00:21:21.947
00:27:23.809 : en:00:27:23.809
00:36:22.806 : en:00:36:22.806
00:41:42.124 : en:00:41:42.124
00:48:53.305 : en:00:48:53.305
00:54:59.296 : en:00:54:59.296
01:04:23.067 : en:01:04:23.067
01:11:11.767 : en:01:11:11.767
01:16:28.375 : en:01:16:28.375
01:24:47.707 : en:01:24:47.707
01:30:18.997 : en:01:30:18.997
01:37:15.788 : en:01:37:15.788
01:45:36.455 : en:01:45:36.455

pb.wtf



Скачать Американские животные через торрент http://img11.lostpic.net/2018/08/28/9fb775dcef18617405f991cd8a133265.jpg Скачать фильм Американские животные через торрент бесплантно в хорошем качестве Описание: История четырех молодых людей, которые предпринимают одно из самых дерзких ограблений в истории США. Они планируют украсть одну ... 8.2 10 18
Торрент: Зарегистрирован [2018-08-28 19:06] · скачан: 895 раз
Статус: T временная
Размер: 2.06 GB
Как cкачать? Как скачать Американские животные через торрент | qTorrent

% Раздел Тема Автор DL S | L
Фильмы 2018 [DVDrip, WEB-DLRip, HDrip] (DUB, MVO) [ 1.41 GB ] Американские животные / American Animals [2018 BDRip] MVO Twi7ter Скачать
22 | 0
Фильмы 2018 [DVDrip, WEB-DLRip, HDrip] (DUB, MVO) [ 2.13 GB ] Американские животные / American Animals [2018 BDRip] MVO Twi7ter Скачать
28 | 0
Фильмы (Blu-ray, BD-Remux, HDDVD) [ 31.02 GB ] Американские животные / American Animals [2018 BD Remux 1080p] MVO bober100 Скачать
2 | 1
Фильмы [HD 720p, 1080p] (Хороший звук DUB, MVO) [ 9.51 GB ] Американские животные / American Animals [2018 BDRip 1080p] MVO bober100 Скачать
9 | 0
Фильмы 2018 [DVDrip, WEB-DLRip, HDrip] (DUB, MVO) [ 1.41 GB ] Американские животные / American Animals [2018 BDRip] MVO bober100 Скачать
12 | 0
Фильмы 2018 [DVDrip, WEB-DLRip, HDrip] (DUB, MVO) [ 1.45 GB ] Американские животные / American Animals [2018 BDRip-AVC] MVO [HDrezka Studio] - ExKinoRay Enigma2010 Скачать
2 | 0


>> Регистрируемся здесь <<






Отзывы и комментарии о схеме читаем и пишем здесь: ---> Отзывы и комментарии о схеме

Новые благодарочки в телеграм довольных пользователей:
скриншот   скриншот   скриншот   скриншот   скриншот

29-08-2018 09:37 Американские животные Скачать торрент  

Книга Джона Джеймса Одюбона, напечатанная в первой половине XIX века тиражом 200 экземпляров, была недавно продана на аукционе Sotheby’s за 11,5 миллиона долларов.

трейлер:

pb.wtf



30-08-2018 06:19 Американские животные Скачать торрент  

не смотрите эту шнягую. смысла в фильме ноль pb.wtf



30-08-2018 16:38 Американские животные Скачать торрент  

вася123 писал(а):

не смотрите эту шнягую. смысла в фильме ноль

Тоже так думаю если взять одно название то это про американский гоздэп.pb.wtf



    Дорогой пользователь! Огромная просьба, поблагодарите релизера, оцените раздачу и оставьте свои комментарий, если Вы скачали Американские животные через торрент бесплатно! Внесите свою лепту в развитие PiratBit!
    Комментировать посты могут только пользователи прошедшие не сложную регистрацию
    Показать сообщения:    

    Американские животные через торрент
    Скачать бесплатно Американские животные
    Американские животные скачать торрент
    Американские животные смотреть онлайн
    Cкачать фильм Американские животные бесплатно
    Американские животные скачать торрент в хорошем качестве
    Американские животные смотреть онлайн бесплатно в хорошем качестве


    Вы не можете начинать темы
    Вы не можете отвечать на сообщения
    Вы не можете редактировать свои сообщения
    Вы не можете удалять свои сообщения
    Вы не можете голосовать в опросах
    Вы не можете прикреплять файлы к сообщениям
    Вы можете скачивать файлы