Ссылка на приватное зеркало нашего сайта всего за 1$. Внимание количество ограничено!!!

2 сезон

iTunes

1 сезон

1

2 сезон

2 сезон

iTunes

1 сезон

RePack

30

Ultimate

ВАЖНО

ИГРА 18+

pack

RePack

MK11
pack

Забери бонус

RePack

jed

!!Акция!!

Alien_Rage

RePack

fifa19

RePack

Assassins Creed: Odyssey

RePack

NEED FOR SPEED™ PAYBACK

4 сезон

9 сезон

Бесстыжие 9 сезон

Все сериалы

все сериалы на PB.wtf

RePack

FAR CRY 5
  

Энн / Anne / Сезон: 1-2 / Серии: 1-17 из 17 (Пол Фокс, Хелен Шейвер, Аманда Таппинг) [2017-2018, драма, WEB-DLRip] [MVO] (FilmsClub) pb.wtf

Энн через торрент pb.wtf

Размер: 9.9 GB | Добавлен: 2 года 3 мес. назад | Торрент скачан:63 раза
Скачать  

29-08-2018 07:52 Энн Скачать торрент  

Энн / Anne
Год выпуска: 2017-2018
Жанр: Драма
Выпущено: Канада
Продолжительность: 17 x ~ 00:45:00
Перевод: Любительский (многоголосый, закадровый) *FilmsClub*

Режиссер: Пол Фокс, Хелен Шейвер, Аманда Таппинг

В ролях: Эмибет МакНалти, Джеральдин Джеймс, Р.Х. Томсон, Коррин Косло, Эмерик Джетт Монтас, Хелен Джонс, Лукас Джейд Зуманн, Кристиан Мартин, Кайла Мэттьюс

О сериале: Энн — тринадцатилетняя сирота. Девочка рано лишилась родителей и с тех пор живёт в детском приюте. Жизнь героини резко меняется, когда в результате ошибки она попадает к новым приёмным родителям, старой деве и её младшему брату.



Релиз --

Файл

Качество: WEB-DLRip
Формат: AVI
Видео: 720x400 (1.80:1), 23.976 fps, XviD build 73 ~ 1500 Кбит/с
Аудио 1: 48 kHz, MPEG Layer 3, 2 ch, ~128.00 kbps avg - *FilmsClub*
Аудио 2: 48 kHz, MPEG Layer 3, 2 ch, ~128.00 kbps avg - Original
Субтитры: нет
General
Complete name : E:\Anne\Anne.s01e01.avi
Format : AVI
Format/Info : Audio Video Interleave
File size : 1.09 GiB
Duration : 1 h 28 min
Overall bit rate : 1 775 kb/s
Movie name : Anne.s01e01.Skreech
Writing application : VirtualDubMod 1.5.10.2 (build 2540/release)

Video
ID : 0
Format : MPEG-4 Visual
Format profile : Advanced Simple@L5
Format settings : BVOP1 / Custom Matrix
Format settings, BVOP : 1
Format settings, QPel : No
Format settings, GMC : No warppoints
Format settings, Matrix : Custom
Codec ID : XVID
Codec ID/Hint : XviD
Duration : 1 h 28 min
Bit rate : 1 438 kb/s
Width : 720 pixels
Height : 400 pixels
Display aspect ratio : 16:9
Frame rate : 23.976 (24000/1001) FPS
Color space : YUV
Chroma subsampling : 4:2:0
Bit depth : 8 bits
Scan type : Progressive
Compression mode : Lossy
Bits/(Pixel*Frame) : 0.208
Stream size : 908 MiB (81%)
Writing library : XviD 73

Audio #1
ID : 1
Format : MPEG Audio
Format version : Version 1
Format profile : Layer 3
Format settings : Joint stereo
Mode : Joint stereo
Codec ID : 55
Codec ID/Hint : MP3
Duration : 1 h 28 min
Bit rate mode : Constant
Bit rate : 128 kb/s
Channel(s) : 2 channels
Sampling rate : 48.0 kHz
Compression mode : Lossy
Stream size : 80.8 MiB (7%)
Alignment : Split accross interleaves

Audio #2
ID : 2
Format : MPEG Audio
Format version : Version 1
Format profile : Layer 3
Format settings : Joint stereo / MS Stereo
Mode : Joint stereo
Mode extension : MS Stereo
Codec ID : 55
Codec ID/Hint : MP3
Duration : 1 h 28 min
Bit rate mode : Constant
Bit rate : 128 kb/s
Channel(s) : 2 channels
Sampling rate : 48.0 kHz
Compression mode : Lossy
Stream size : 80.8 MiB (7%)
Alignment : Split accross interleaves
скриншот  скриншот  скриншот  
pb.wtf



Скачать Энн через торрент https://i102.fastpic.ru/big/2018/0827/3a/10d452d8c2929238810d602c40a8073a.jpg Скачать фильм Энн через торрент бесплантно в хорошем качестве В ролях: Эмибет МакНалти, Джеральдин Джеймс, Р.Х. Томсон, Коррин Косло, Эмерик Джетт Монтас, Хелен Джонс, Лукас Джейд Зуманн, Кристиан ... 10 10 2
Торрент: Зарегистрирован [2018-08-29 07:52] · скачан: 63 раз
Статус: √ проверено
Размер: 9.9 GB
Как cкачать? Как скачать Энн через торрент | qTorrent

28-11-2019 20:33  

Отключить всю рекламу на сайте

    Дорогой пользователь! Огромная просьба, поблагодарите релизера, оцените раздачу и оставьте свои комментарий, если Вы скачали Энн через торрент бесплатно! Внесите свою лепту в развитие PiratBit!
    Комментировать посты могут только пользователи прошедшие не сложную регистрацию
    Показать сообщения:    

    Энн через торрент
    Скачать бесплатно Энн
    Энн скачать торрент
    Энн смотреть онлайн
    Cкачать фильм Энн бесплатно
    Энн скачать торрент в хорошем качестве
    Энн смотреть онлайн бесплатно в хорошем качестве


    Вы не можете начинать темы
    Вы не можете отвечать на сообщения
    Вы не можете редактировать свои сообщения
    Вы не можете удалять свои сообщения
    Вы не можете голосовать в опросах
    Вы не можете прикреплять файлы к сообщениям
    Вы можете скачивать файлы