Ссылка на приватное зеркало нашего сайта всего за 1$. Внимание количество ограничено!!!

2 сезон

iTunes

1 сезон

1

2 сезон

2 сезон

iTunes

1 сезон

RePack

30

Новинка

ВАЖНО

ИГРА 18+

pack

RePack

MK11
pack

Забери бонус

RePack

jed

!!Акция!!

Alien_Rage

RePack

fifa19

RePack

Assassins Creed: Odyssey

RePack

NEED FOR SPEED™ PAYBACK

4 сезон

9 сезон

Бесстыжие 9 сезон

Все сериалы

все сериалы на PB.wtf

RePack

FAR CRY 5
  

Реинкарнация / Hereditary (Ари Астер) [2018, ужасы, триллер, драма, детектив, BD Remux 1080p] DUB [Лицензия R5] pb.wtf

Реинкарнация через торрент pb.wtf

Размер: 34.46 GB | Добавлен: 1 год 8 мес. назад | Торрент скачан:83 раза
Скачать  

29-08-2018 11:09 Реинкарнация Скачать торрент  

Реинкарнация / Hereditary«У каждой родословной есть свои тайны»
Год выпуска: 2018
Страна: США
Жанр: ужасы, триллер, драма, детектив
Продолжительность: 02:07:25
Перевод: Дублированный | Лицензия R5
Субтитры: Русские (full), английские

Режиссер: Ари Астер

rating

В ролях:

Алекс Вулф, Гэбриел Бирн, Тони Коллетт, Милли Шапиро, Кристи Саммерхэйс, Морган Ланд, Мэллори Бехтель, Джейк Браун, Харрисон Нелл, Брианн Рейчел

Описание:

После смерти матери Энни Грэхем в её ранее спокойном доме начинает твориться нечто необъяснимое. Теперь под угрозой жизнь её близких. С каждым днём открываются новые ужасающие секреты их семьи. Энни осознаёт, что эти кошмары берут своё начало в далёком прошлом. Сможет ли она найти ключ к тайне зловещего проклятия, которое передаётся из поколения в поколение...

Качество: BD Remux 1080p
Формат: MKV

Видео: MPEG-4 AVC, 1920x1080, 34.9 Mbit/s, 23.976 fps
Аудио#1: 48 kHz, AC3, 5.1, 448 Kbps | Дублированный | RUS |
Аудио#2: 48 kHz, DTS-HD MA, 5.1, 3375 Kbps | Оригинал | ENG |
скриншот  скриншот  скриншот  скриншот  скриншот  

General
Unique ID : 13549040581624440124298378972680252844 (0xA317346B085EF4B7FAA4382F27D6DAC)
Complete name : F:Video1Hereditary.2018.Lic.BDREMUX.1080p.seleZen.mkv
Format : Matroska
Format version : Version 4
File size : 34.5 GiB
Duration : 2 h 7 min
Overall bit rate mode : Variable
Overall bit rate : 38.7 Mb/s
Movie name : Hereditary 2018 from селезень
Encoded date : UTC 2019-03-12 13:16:17
Writing application : mkvmerge v31.0.0 ('Dolores In A Shoestand') 64-bit
Writing library : libebml v1.3.6 + libmatroska v1.4.9

Video
ID : 1
Format : AVC
Format/Info : Advanced Video Codec
Format profile : High@L4.1
Format settings : CABAC / 4 Ref Frames
Format settings, CABAC : Yes
Format settings, ReFrames : 4 frames
Codec ID : V_MPEG4/ISO/AVC
Duration : 2 h 7 min
Bit rate mode : Variable
Bit rate : 34.9 Mb/s
Maximum bit rate : 37.0 Mb/s
Width : 1 920 pixels
Height : 1 080 pixels
Display aspect ratio : 16:9
Frame rate mode : Constant
Frame rate : 23.976 (24000/1001) FPS
Color space : YUV
Chroma subsampling : 4:2:0
Bit depth : 8 bits
Scan type : Progressive
Bits/(Pixel*Frame) : 0.702
Stream size : 31.1 GiB (90%)
Language : English
Default : Yes
Forced : No

Audio #1
ID : 2
Format : AC-3
Format/Info : Audio Coding 3
Commercial name : Dolby Digital
Codec ID : A_AC3
Duration : 2 h 7 min
Bit rate mode : Constant
Bit rate : 448 kb/s
Channel(s) : 6 channels
Channel layout : L R C LFE Ls Rs
Sampling rate : 48.0 kHz
Frame rate : 31.250 FPS (1536 SPF)
Bit depth : 16 bits
Compression mode : Lossy
Stream size : 408 MiB (1%)
Title : Dub [License]
Language : Russian
Service kind : Complete Main
Default : Yes
Forced : Yes

Audio #2
ID : 3
Format : DTS XLL
Format/Info : Digital Theater Systems
Commercial name : DTS-HD Master Audio
Codec ID : A_DTS
Duration : 2 h 7 min
Bit rate mode : Variable
Bit rate : 3 375 kb/s
Channel(s) : 6 channels
Channel layout : C L R Ls Rs LFE
Sampling rate : 48.0 kHz
Frame rate : 93.750 FPS (512 SPF)
Bit depth : 24 bits
Compression mode : Lossless
Stream size : 3.00 GiB (9%)
Title : Original
Language : English
Default : No
Forced : No

Text #1
ID : 4
Format : UTF-8
Codec ID : S_TEXT/UTF8
Codec ID/Info : UTF-8 Plain Text
Duration : 2 h 0 min
Bit rate : 56 b/s
Count of elements : 1015
Stream size : 50.0 KiB (0%)
Title : Full
Language : Russian
Default : No
Forced : No

Text #2
ID : 5
Format : UTF-8
Codec ID : S_TEXT/UTF8
Codec ID/Info : UTF-8 Plain Text
Duration : 2 h 0 min
Bit rate : 33 b/s
Count of elements : 1014
Stream size : 29.4 KiB (0%)
Language : English
Default : No
Forced : No

Menu
00:00:00.000 : en:00:00:00.000
00:06:03.321 : en:00:06:03.321
00:13:34.147 : en:00:13:34.147
00:23:01.130 : en:00:23:01.130
00:26:31.173 : en:00:26:31.173
00:34:57.762 : en:00:34:57.762
00:40:56.496 : en:00:40:56.496
00:47:23.090 : en:00:47:23.090
00:54:34.396 : en:00:54:34.396
01:04:02.881 : en:01:04:02.881
01:08:55.631 : en:01:08:55.631
01:19:35.854 : en:01:19:35.854
01:25:09.396 : en:01:25:09.396
01:32:50.315 : en:01:32:50.315
01:40:01.412 : en:01:40:01.412
01:53:21.378 : en:01:53:21.378

pb.wtf



Скачать Реинкарнация через торрент http://img11.lostpic.net/2018/08/27/c2cc19fdaea61117d66b0c1e816441c0.jpg Скачать фильм Реинкарнация через торрент бесплантно в хорошем качестве Описание: После смерти матери Энни Грэхем в её ранее спокойном доме начинает твориться нечто необъяснимое. Теперь под угрозой жизнь её ... 10 10 5
Торрент: Зарегистрирован [2019-03-12 17:23] · скачан: 83 раз
Статус: √ проверено
Размер: 34.46 GB
Как cкачать? Как скачать Реинкарнация через торрент | qTorrent

% Раздел Тема Автор DL S | L
Фильмы 2018 [DVDrip, WEB-DLRip, HDrip] (DUB, MVO) [ 1.46 GB ] Реинкарнация / Hereditary [2018 HDRip-AVC] DUB [] bober100 Скачать
3 | 0
Ultra HD (UHD: 2K, 4K, 8K) — видео сверхвысокой чёткости [ 67.14 GB ] Реинкарнация / Hereditary [2018 UHD BDRemux 2160p] [Dolby Vision TV] DUB [] bober100 Скачать
1 | 0
Ultra HD (UHD: 2K, 4K, 8K) — видео сверхвысокой чёткости [ 67.98 GB ] Реинкарнация / Hereditary [2018 UHD BDRemux 2160p] DUB [] + AVO [С. Визгунов] sheker187 Скачать
1 | 0
Ultra HD (UHD: 2K, 4K, 8K) — видео сверхвысокой чёткости [ 66.59 GB ] Реинкарнация / Hereditary [2018 UHD BDRemux 2160p] DUB [] bober100 Скачать
1 | 0
Фильмы 2018 [DVDrip, WEB-DLRip, HDrip] (DUB, MVO) [ 1.46 GB ] Реинкарнация / Hereditary [2018 BDRip] - [] Twi7ter Скачать
1 | 0
Фильмы 2018 [DVDrip, WEB-DLRip, HDrip] (DUB, MVO) [ 2.18 GB ] Реинкарнация / Hereditary [2018 BDRip] - [] Twi7ter Скачать
2 | 0
Ultra HD (UHD: 2K, 4K, 8K) — видео сверхвысокой чёткости [ 79.49 GB ] Реинкарнация / Hereditary [2018 UHD Blu-Ray 2160p] [HDR + Dolby Vision] sheker187 Скачать
1 | 0

28-11-2019 20:33  

Отключить всю рекламу на сайте

    Дорогой пользователь! Огромная просьба, поблагодарите релизера, оцените раздачу и оставьте свои комментарий, если Вы скачали Реинкарнация через торрент бесплатно! Внесите свою лепту в развитие PiratBit!
    Комментировать посты могут только пользователи прошедшие не сложную регистрацию
    Показать сообщения:    

    Реинкарнация через торрент
    Скачать бесплатно Реинкарнация
    Реинкарнация скачать торрент
    Реинкарнация смотреть онлайн
    Cкачать фильм Реинкарнация бесплатно
    Реинкарнация скачать торрент в хорошем качестве
    Реинкарнация смотреть онлайн бесплатно в хорошем качестве


    Вы не можете начинать темы
    Вы не можете отвечать на сообщения
    Вы не можете редактировать свои сообщения
    Вы не можете удалять свои сообщения
    Вы не можете голосовать в опросах
    Вы не можете прикреплять файлы к сообщениям
    Вы можете скачивать файлы