Ссылка на приватное зеркало нашего сайта всего за 1$. Внимание количество ограничено!!!

2 сезон

iTunes

1 сезон

1

2 сезон

2 сезон

iTunes

1 сезон

RePack

30

Ultimate

ВАЖНО

ИГРА 18+

pack

RePack

MK11
pack

Забери бонус

RePack

jed

!!Акция!!

Alien_Rage

RePack

fifa19

RePack

Assassins Creed: Odyssey

RePack

NEED FOR SPEED™ PAYBACK

4 сезон

9 сезон

Бесстыжие 9 сезон

Все сериалы

все сериалы на PB.wtf

RePack

FAR CRY 5
  

Странный ангел / Strange Angel / Сезон: 1 / Серии: 1-10 из 10 (Дэвид Лоури, Нельсон МакКормик, Бен Уитли) [2018, Драма, мистика, фантастика, WEB-DL 720p] MVO [LostFilm] pb.wtf

Странный ангел через торрент pb.wtf

Размер: 15.96 GB | Добавлен: 2 года 3 мес. назад | Торрент скачан:13 раз
Скачать  

29-08-2018 12:17 Странный ангел Скачать торрент  

Странный ангел / Strange Angel Год выпуска: 2018
Страна: США
Жанр: Драма, мистика, научная фантастика
Продолжительность: 00:55:00
Перевод: Профессиональный (многоголосый закадровый) | LostFilm
Субтитры: Русские, английские

Режиссёр: Дэвид Лоури, Нельсон МакКормик, Бен Уитли

В ролях:

Питер Марк Кендалл, Джек Рейнор, Майкл Гэстон, Дэн Донохью, Рэнди Оглсби, Фил Абрамс, Курт Ёла, Роб Забрески, Коллин Фой

Описание:

Джек Парсонс — знаменитый инженер, химик и оккультист. В 1930-х молодой человек, с детства увлекавшийся реактивным движением, начал работать уборщиком на химическом заводе в Лос-Анджелесе. Вскоре благодаря врожденному таланту и амбициям Парсонс смог положить начало американскому ракетостроению и стал одним из ключевых основателей Лаборатории реактивного движения. Однако интересы Парсона не ограничивались химией. В начале 1940-х, после кратковременного периода увлечения марксизмом, Парсонс заинтересовался учениями английского оккультиста Алистера Кроули и вместе с женой Хелен присоединился к калифорнийскому отделению ордена восточных тамплиеров.

rating Сэмпл: http://multi-up.com/1203119

Качество: WEB-DL 720p | Чистый рип. Вступительная заставка и логотип LostFilm отсутствуют.
Контейнер: MKV

Видео: MPEG-4 AVC, 1280x688 (1.85:1), 23.976 fps, 3267 Kbps, 0.155 bits/pixel
Аудио 1: 48 kHz, AC3, 2 ch, 384 kbps | Rus
Аудио 2: 48 kHz, E-AC3, 6 ch, 640 384 kbps | Eng
General

Complete name : Downloads\Strange.Angel (Season 01) 720\Strange.Angel.S01E01.Augurs.of.Spring.720p.WEB-DL.LostFilm.mkv
Format : Matroska
Format version : Version 4 / Version 2
File size : 1.67 GiB
Duration : 54mn 27s
Overall bit rate : 4 378 Kbps
Writing application : mkvmerge v23.0.0 ('The Bride Said No') 32-bit
Writing library : libebml v1.3.6 + libmatroska v1.4.9
Attachements : cover.strange.angel.jpg
DURATION : 00:50:54.964000000
NUMBER_OF_FRAMES : 518
NUMBER_OF_BYTES : 27351
_STATISTICS_WRITING_APP : mkvmerge v23.0.0 ('The Bride Said No') 32-bit
_STATISTICS_TAGS : BPS DURATION NUMBER_OF_FRAMES NUMBER_OF_BYTES
Video #1
ID : 1
Format : AVC
Format/Info : Advanced Video Codec
Format profile : High@L3.1
Format settings, CABAC : Yes
Format settings, ReFrames : 5 frames
Codec ID : V_MPEG4/ISO/AVC
Duration : 54mn 27s
Bit rate : 3 267 Kbps
Width : 1 280 pixels
Height : 688 pixels
Display aspect ratio : 1.85:1
Frame rate mode : Constant
Frame rate : 23.976 fps
Color space : YUV
Chroma subsampling : 4:2:0
Bit depth : 8 bits
Scan type : Progressive
Bits/(Pixel*Frame) : 0.155
Stream size : 1.24 GiB (75%)
Language : English
Default : Yes
Forced : No
Color primaries : BT.709
Transfer characteristics : BT.709
Matrix coefficients : BT.709
Color range : Limited
Audio #2
ID : 2
Format : AC-3
Format/Info : Audio Coding 3
Mode extension : CM (complete main)
Format settings, Endianness : Big
Codec ID : A_AC3
Duration : 54mn 27s
Bit rate mode : Constant
Bit rate : 384 Kbps
Channel(s) : 2 channels
Channel positions : Front: L R
Sampling rate : 48.0 KHz
Bit depth : 16 bits
Compression mode : Lossy
Stream size : 150 MiB (9%)
Title : AC3 2.0 @ 384 kbps - MVO, LostFilm
Language : Russian
Default : Yes
Forced : No
Audio #3
ID : 3
Format : E-AC-3
Format/Info : Audio Coding 3
Format settings, Endianness : Big
Codec ID : A_EAC3
Duration : 54mn 27s
Bit rate mode : Constant
Bit rate : 640 Kbps
Channel(s) : 6 channels
Channel positions : Front: L C R, Side: L R, LFE
Sampling rate : 48.0 KHz
Compression mode : Lossy
Stream size : 249 MiB (15%)
Title : E-AC3 5.1 @ 640 kbps - Original
Language : English
Default : No
Forced : No
Text #4
ID : 4
Format : UTF-8
Codec ID : S_TEXT/UTF8
Codec ID/Info : UTF-8 Plain Text
Title : Full
Language : Russian
Default : No
Forced : No
Text #5
ID : 5
Format : UTF-8
Codec ID : S_TEXT/UTF8
Codec ID/Info : UTF-8 Plain Text
Title : Full SDH
Language : English
Default : No
Forced : No
скриншот   скриншот   скриншот   скриншот   скриншот  
(1) остановить скачивание,
(2) удалить старый торрент у себя из клиента (старые серии удалять не надо),
(3) скачать новый торрент и запустить его у себя в клиенте вместо старого, при этом указать клиенту путь в старую папку куда и должно происходить скачивание новых серий.
Ваш клиент при этом должен произвести хеширование (проверку) старой папки (если не производит сам - помогите ему сделать это), и будет докачивать только те серии которых у вас ещё нет. Старые серии при этом не удаляются, а продолжают раздаваться!
Eсли вы уже удалили старые серии, то предотвратить повторную закачку старых серий можно, отжав галочку в соответсвующих местах при запуске нового торрента. По возможности, желательно не удалять старые серии как можно дольше чтобы релизёр не столько продолжал раздавать старые серии, а смог сконцентрироваться на новых
.
pb.wtf



Скачать Странный ангел через торрент https://d.radikal.ru/d37/1807/3d/895cc765a2af.jpg Скачать фильм Странный ангел через торрент бесплантно в хорошем качестве Описание: Джек Парсонс — знаменитый инженер, химик и оккультист. В 1930-х молодой человек, с детства увлекавшийся реактивным движением, ... 10 10 2
Торрент: Зарегистрирован [2018-08-29 12:17] · скачан: 13 раз
Статус: √ проверено
Размер: 15.96 GB
Как cкачать? Как скачать Странный ангел через торрент | qTorrent

% Раздел Тема Автор DL S | L
Зарубежные сериалы [ 13.44 GB ] Странный ангел / Strange Angel / Сезон: 2 / Серии: 1-7 из 7 [2019 WEBRip 1080p] [MVO] killermax2013 Скачать
1 | 0
Зарубежные сериалы [ 6.01 GB ] Странный ангел / Strange Angel / Сезон: 1 / Серии: 1-10 из 10 [2018 WEBRip] [MVO] killermax2013 Скачать
1 | 0
Зарубежные сериалы [ 16.86 GB ] Странный ангел / Strange Angel / Сезон: 1 / Серии: 1-10 из 10 [2018 WEBRip 720p] [MVO] killermax2013 Скачать
1 | 0
Зарубежные сериалы [ 13.27 GB ] Странный ангел / Strange Angel / Сезон: 1 / Серии: 1-10 из 10 [2018 WEB-DL 720p] [MVO] killermax2013 Скачать
1 | 0
Зарубежные сериалы [ 5.82 GB ] Странный ангел / Strange Angel / Сезон: 1 / Серии: 1-10 из 10 [2018 WEB-DLRip] MVO [AlexFilm] bober100 Скачать
1 | 0
Зарубежные сериалы [ 15.96 GB ] Странный ангел / Strange Angel / Сезон: 1 / Серии: 1-10 из 10 [2018 WEB-DL 720p] MVO [NewStudio] bober100 Скачать
1 | 0
Зарубежные сериалы [ 9.84 GB ] Странный ангел / Strange Angel / Сезон: 1 / Серии: 1-10 из 10 [2018 WEB-DLRip] MVO [NewStudio] bober100 Скачать
1 | 0

28-11-2019 20:33  

Отключить всю рекламу на сайте

    Дорогой пользователь! Огромная просьба, поблагодарите релизера, оцените раздачу и оставьте свои комментарий, если Вы скачали Странный ангел через торрент бесплатно! Внесите свою лепту в развитие PiratBit!
    Комментировать посты могут только пользователи прошедшие не сложную регистрацию
    Показать сообщения:    

    Странный ангел через торрент
    Скачать бесплатно Странный ангел
    Странный ангел скачать торрент
    Странный ангел смотреть онлайн
    Cкачать фильм Странный ангел бесплатно
    Странный ангел скачать торрент в хорошем качестве
    Странный ангел смотреть онлайн бесплатно в хорошем качестве


    Вы не можете начинать темы
    Вы не можете отвечать на сообщения
    Вы не можете редактировать свои сообщения
    Вы не можете удалять свои сообщения
    Вы не можете голосовать в опросах
    Вы не можете прикреплять файлы к сообщениям
    Вы можете скачивать файлы