Ссылка на приватное зеркало всего за 1$. Внимание количество ограничено!!!

OK

1+1

iTunes

мы

OK

1

WEB-DLRip

Джокер

Пифагор

Ведьмак / The Witcher сериал

Лицензия

ПШазам

ОК

Оно 2

iTunes

30
pack

Вам бонус

ВАЖНО

!!Акция!!

Alien_RageХит недели

RePack

Resident Evil 21

ИГРА 18+

pack

RePack

jed

!!Акция!!

Alien_Rage

RePack

fifa19

RePack

Assassins Creed: Odyssey

RePack

NEED FOR SPEED™ PAYBACK

4 сезон

9 сезон

Бесстыжие 9 сезон

Все сериалы

все сериалы на PB.wtf

RePack

FAR CRY 5
  

Оборотная сторона / The Other Side (Уоррен Пембертон) [2018 г., Комедия, мелодрама, драма, WEB-DLRip, Любительский (многоголосый)] [Синема УС] pb.wtf

Оборотная сторона через торрент pb.wtf

Размер: 1.37 GB | Добавлен: 1 год 4 мес. назад | Торрент скачан:23 раза
Скачать  

29-08-2018 15:34 Оборотная сторона Скачать торрент  

Оборотная сторона / The Other Side
Год выпуска: 2018
Страна: США
Жанр: Комедия, мелодрама, драма
Продолжительность: 01:39:22
Перевод: Любительский (многоголосый) | Синема УС
Субтитры: Отсутствуют

Режиссер: Уоррен Пембертон

rating

В ролях: Мигель А. Нуньес мл., Лакета Рене Букер, Брайан Кайоде-Патрик Джонсон, Эрика Хаббард, Коко Браун, Усман Шариф, БриАнна Мари, Брэд Джеймс, Ник Арапоглу, Роджер Гуэнвёр Смит

Описание: Главный герой Аллен, по уши влюбляется в дочь своего босса. Девушка отвечает взаимностью, намечается свадьба. Неожиданно в их жизнь врывается старая подруга невесты Кайя, Ален замечает между ними нечто большее чем дружественные отношения. Он понимает, что и его будущая жена, возможно, скрывает свою истинную ориентацию. Состоится ли брак Аллена и Джеммы?

Качество: WEB-DLRip
Формат: AVI
Видео кодек: XviD
Аудио кодек: AC3
Видео: XviD, 720x400 , 23.9fps, 1576 Kbps
Аудио#1: AC3 , 2 ch , 48 kHz , 384 kbps
скриншот   скриншот   скриншот   скриншот  

Общее
Полное имя : D:The.Other.Side.2018.P.WEB-DLRip.14OOMB_KOSHARA.avi
Формат : AVI
Формат/Информация : Audio Video Interleave
Размер файла : 1,37 Гбайт
Продолжительность : 1 ч. 39 м.
Общий поток : 1969 Кбит/сек
Программа кодирования : VirtualDubMod 1.5.10.2 (build 2540/release)
Библиотека кодирования : VirtualDubMod build 2540/release

Видео
Идентификатор : 0
Формат : MPEG-4 Visual
Профиль формата : Advanced Simple@L5
Параметр BVOP формата : 2
Параметр QPel формата : Нет
Параметр GMC формата : Без точки перехода
Параметр матрицы формата : Выборочная
Идентификатор кодека : XVID
Идентификатор кодека/Подсказка : XviD
Продолжительность : 1 ч. 39 м.
Битрейт : 1576 Кбит/сек
Ширина : 720 пикселей
Высота : 400 пикселей
Соотношение сторон : 16:9
Частота кадров : 23,976 кадра/сек
Цветовое пространство : YUV
Субдискретизация насыщенности : 4:2:0
Битовая глубина : 8 бит
Тип развёртки : Прогрессивная
Метод сжатия : С потерями
Бит/(Пиксели*Кадры) : 0.228
Размер потока : 1,09 Гбайт (80%)
Библиотека кодирования : XviD 1.2.1 (UTC 2008-12-04)

Аудио
Идентификатор : 1
Формат : AC-3
Формат/Информация : Audio Coding 3
Расширение режима : CM (complete main)
Параметр Endianness формата : Big
Идентификатор кодека : 2000
Продолжительность : 1 ч. 39 м.
Вид битрейта : Постоянный
Битрейт : 384 Кбит/сек
Каналы : 2 канала
Расположение каналов : Front: L R
Частота : 48,0 КГц
Битовая глубина : 16 бит
Метод сжатия : С потерями
Размер потока : 273 Мбайт (20%)
Выравнивание : Разделение по промежуткам
Продолжительность промежутка : 42 мс. (1,00 видеокадр)
Время предзагрузки промежутка : 500 мс.

pb.wtf



Скачать Оборотная сторона через торрент http://pic1.kartinco.top/images/11/l5kf6.jpg Скачать фильм Оборотная сторона через торрент бесплантно в хорошем качестве Описание: Главный герой Аллен, по уши влюбляется в дочь своего босса. Девушка отвечает взаимностью, намечается свадьба. Неожиданно в их ... 10 10 2
Торрент: Зарегистрирован [2018-08-29 15:34] · скачан: 23 раз
Статус: T временная
Размер: 1.37 GB
Как cкачать? Как скачать Оборотная сторона через торрент | qTorrent



Последний раз редактировалось: Скорпион1976 (2018-08-29 19:58), всего редактировалось 1 раз

28-11-2019 20:33  

Отключить всю рекламу на сайте

29-08-2018 19:25 Оборотная сторона Скачать торрент  

Оборотная сторона медали / The Other Side переводчики жгут, с какого в название медаль взялась?pb.wtf



29-08-2018 19:58 Оборотная сторона Скачать торрент  

tka4ov81 писал(а):

Оборотная сторона медали / The Other Side переводчики жгут, с какого в название медаль взялась?

Ну не знаю,так было, сейчас исправлю)pb.wtf



    Дорогой пользователь! Огромная просьба, поблагодарите релизера, оцените раздачу и оставьте свои комментарий, если Вы скачали Оборотная сторона через торрент бесплатно! Внесите свою лепту в развитие PiratBit!
    Комментировать посты могут только пользователи прошедшие не сложную регистрацию
    Показать сообщения:    

    Оборотная сторона через торрент
    Скачать бесплатно Оборотная сторона
    Оборотная сторона скачать торрент
    Оборотная сторона смотреть онлайн
    Cкачать фильм Оборотная сторона бесплатно
    Оборотная сторона скачать торрент в хорошем качестве
    Оборотная сторона смотреть онлайн бесплатно в хорошем качестве


    Вы не можете начинать темы
    Вы не можете отвечать на сообщения
    Вы не можете редактировать свои сообщения
    Вы не можете удалять свои сообщения
    Вы не можете голосовать в опросах
    Вы не можете прикреплять файлы к сообщениям
    Вы можете скачивать файлы