Ссылка на приватное зеркало нашего сайта всего за 1$. Внимание количество ограничено!!!

2 сезон

iTunes

1 сезон

1

2 сезон

2 сезон

iTunes

1 сезон

RePack

30

Ultimate

ВАЖНО

ИГРА 18+

pack

RePack

MK11
pack

Забери бонус

RePack

jed

!!Акция!!

Alien_Rage

RePack

fifa19

RePack

Assassins Creed: Odyssey

RePack

NEED FOR SPEED™ PAYBACK

4 сезон

9 сезон

Бесстыжие 9 сезон

Все сериалы

все сериалы на PB.wtf

RePack

FAR CRY 5
  

Незнакомцы: Жестокие игры / The Strangers: Prey at Night (Йоханнес Робертс) [2018, ужасы, BD Remux 1080p] [US Transfer] DUB [Лицензия] pb.wtf

Незнакомцы: Жестокие игры через торрент pb.wtf

Размер: 25.49 GB | Добавлен: 2 года 3 мес. назад | Торрент скачан:13 раз
Скачать  

29-08-2018 18:22 Незнакомцы: Жестокие игры Скачать торрент  

Незнакомцы: Жестокие игры / The Strangers: Prey at Night
Год выпуска: 2018
Страна: Канада
Жанр: ужасы
Продолжительность: 01:25:37
Перевод: Дублированный | Лицензия
Субтитры: Русские (full), английские

Режиссер: Йоханнес Робертс

rating

В ролях:

Кристина Хендрикс (Cindy), Бэйли Мэдисон (Kinsey), Мартин Хендерсон (Mike), Эмма Белломи (Dollface), Льюис Пуллман (Luke), Дэмиэн Маффей (Man in the Mask), Лиа Энзлин (Pin-Up Girl), Леа Робертс (Young Mother), Престон Садлеир (Officer Brooks), Gabriel A. Byrne (Young Son), Sunny Dixit (Charles)
Описание:

Американская семья отправляется в небольшое путешествие - навестить родственников, которые живут в кемпинге. Но автомобильный лагерь оказывается пуст. Под покровом ночи появляются трое психопатов в масках, цель которых не грабить или убивать, а выяснить, какой у каждого из членов семьи личный предел жажды жизни...​

Качество: BD Remux 1080p | US Transfer
Формат: MKV

Видео: MPEG-4 AVC, 1920x1080, 34.9 Mbit/s, 23.976 fps
Аудио#1: 48 kHz, DTS-HD MA, 5.1, 3630 Kbps | Дублированный | RUS |
Аудио#2: 48 kHz, AC3, 5.1, 640 Kbps | Дублированный | RUS |
Аудио#3: 48 kHz, DTS-HD MA, 5.1, 3419 Kbps | Оригинал | ENG |
скриншот  скриншот  скриншот  скриншот  скриншот  

General
Unique ID : 243843432748453502406481290686794090649 (0xB7728971713AC6DDA781FA202F68C899)
Complete name : D:Video111The.Strangers.Prey.at.Night.2018.BDREMUX.1080p.ExKinoRay.mkv
Format : Matroska
Format version : Version 4 / Version 2
File size : 25.5 GiB
Duration : 1 h 25 min
Overall bit rate mode : Variable
Overall bit rate : 42.6 Mb/s
Movie name : The Strangers Prey at Night 2018 from ExKinoRay
Encoded date : UTC 2018-08-29 17:02:47
Writing application : mkvmerge v23.0.0 ('The Bride Said No') 64-bit
Writing library : libebml v1.3.6 + libmatroska v1.4.9

Video
ID : 1
Format : AVC
Format/Info : Advanced Video Codec
Format profile : High@L4.1
Format settings : CABAC / 4 Ref Frames
Format settings, CABAC : Yes
Format settings, ReFrames : 4 frames
Codec ID : V_MPEG4/ISO/AVC
Duration : 1 h 25 min
Bit rate mode : Variable
Bit rate : 34.9 Mb/s
Maximum bit rate : 40.0 Mb/s
Width : 1 920 pixels
Height : 1 080 pixels
Display aspect ratio : 16:9
Frame rate mode : Constant
Frame rate : 23.976 (24000/1001) FPS
Color space : YUV
Chroma subsampling : 4:2:0
Bit depth : 8 bits
Scan type : Progressive
Bits/(Pixel*Frame) : 0.702
Stream size : 20.9 GiB (82%)
Language : English
Default : Yes
Forced : No

Audio #1
ID : 2
Format : DTS
Format/Info : Digital Theater Systems
Format profile : MA / Core
Codec ID : A_DTS
Duration : 1 h 25 min
Bit rate mode : Variable / Constant
Bit rate : 3 630 kb/s / 1 509 kb/s
Channel(s) : 6 channels
Channel positions : Front: L C R, Side: L R, LFE
Sampling rate : 48.0 kHz
Frame rate : 93.750 FPS (512 SPF)
Bit depth : 24 bits
Compression mode : Lossless / Lossy
Stream size : 2.17 GiB (9%)
Title : Dub [License Blu-Ray RUS]
Language : Russian
Default : Yes
Forced : Yes

Audio #2
ID : 3
Format : AC-3
Format/Info : Audio Coding 3
Commercial name : Dolby Digital
Codec ID : A_AC3
Duration : 1 h 25 min
Bit rate mode : Constant
Bit rate : 640 kb/s
Channel(s) : 6 channels
Channel positions : Front: L C R, Side: L R, LFE
Sampling rate : 48.0 kHz
Frame rate : 31.250 FPS (1536 SPF)
Bit depth : 16 bits
Compression mode : Lossy
Stream size : 392 MiB (2%)
Title : Dub [License Blu-Ray RUS]
Language : Russian
Service kind : Complete Main
Default : No
Forced : No

Audio #3
ID : 4
Format : DTS
Format/Info : Digital Theater Systems
Format profile : MA / Core
Codec ID : A_DTS
Duration : 1 h 25 min
Bit rate mode : Variable / Constant
Bit rate : 3 419 kb/s / 1 509 kb/s
Channel(s) : 6 channels
Channel positions : Front: L C R, Side: L R, LFE
Sampling rate : 48.0 kHz
Frame rate : 93.750 FPS (512 SPF)
Bit depth : 24 bits
Compression mode : Lossless / Lossy
Stream size : 2.05 GiB (8%)
Title : Original
Language : English
Default : No
Forced : No

Text #1
ID : 5
Format : UTF-8
Codec ID : S_TEXT/UTF8
Codec ID/Info : UTF-8 Plain Text
Duration : 1 h 17 min
Bit rate : 35 b/s
Count of elements : 584
Stream size : 20.4 KiB (0%)
Title : Full [License]
Language : Russian
Default : No
Forced : No

Text #2
ID : 6
Format : UTF-8
Codec ID : S_TEXT/UTF8
Codec ID/Info : UTF-8 Plain Text
Duration : 1 h 13 min
Bit rate : 26 b/s
Count of elements : 618
Stream size : 14.3 KiB (0%)
Title : Full
Language : English
Default : No
Forced : No

Text #3
ID : 7
Format : UTF-8
Codec ID : S_TEXT/UTF8
Codec ID/Info : UTF-8 Plain Text
Duration : 1 h 16 min
Bit rate : 32 b/s
Count of elements : 674
Stream size : 18.1 KiB (0%)
Title : SDH
Language : English
Default : No
Forced : No

Menu
00:00:00.000 : en:00:00:00.000
00:04:59.883 : en:00:04:59.883
00:08:49.154 : en:00:08:49.154
00:12:58.111 : en:00:12:58.111
00:17:23.918 : en:00:17:23.918
00:21:53.771 : en:00:21:53.771
00:24:53.909 : en:00:24:53.909
00:30:15.105 : en:00:30:15.105
00:34:45.208 : en:00:34:45.208
00:40:01.899 : en:00:40:01.899
00:44:48.728 : en:00:44:48.728
00:49:48.444 : en:00:49:48.444
00:53:12.606 : en:00:53:12.606
00:56:55.996 : en:00:56:55.996
00:58:20.705 : en:00:58:20.705
01:00:37.884 : en:01:00:37.884
01:05:21.709 : en:01:05:21.709
01:09:17.528 : en:01:09:17.528
01:14:59.036 : en:01:14:59.036
01:18:07.349 : en:01:18:07.349

pb.wtf



Скачать Незнакомцы: Жестокие игры через торрент http://img11.lostpic.net/2018/08/29/d0d964e6aa9819203724939fef588c13.jpg Скачать фильм Незнакомцы: Жестокие игры через торрент бесплантно в хорошем качестве Описание: Американская семья отправляется в небольшое путешествие - навестить родственников, которые живут в кемпинге. Но автомобильный ... 10 10 3
Торрент: Зарегистрирован [2018-08-29 18:22] · скачан: 13 раз
Статус: √ проверено
Размер: 25.49 GB
Как cкачать? Как скачать Незнакомцы: Жестокие игры через торрент | qTorrent

% Раздел Тема Автор DL S | L
Фильмы 2018 [DVDrip, WEB-DLRip, HDrip] (DUB, MVO) [ 1.45 GB ] Незнакомцы: Жестокие игры / The Strangers: Prey at Night [2018 BDRip] DUB [ BD RUS] bober100 Скачать
1 | 0
Фильмы 2018 [DVDrip, WEB-DLRip, HDrip] (DUB, MVO) [ 746 MB ] Незнакомцы: Жестокие игры / The Strangers: Prey at Night [2018 BDRip-AVC] DUB [ BD RUS] bober100 Скачать
1 | 0
Фильмы 2018 [DVDrip, WEB-DLRip, HDrip] (DUB, MVO) [ 1.56 GB ] Незнакомцы: Жестокие игры / The Strangers: Prey at Night [2018 BDRip-AVC] - ExKinoRay Enigma2010 Скачать
2 | 0
Фильмы [HD 720p, 1080p] (Хороший звук DUB, MVO) [ 5.26 GB ] Незнакомцы: Жестокие игры / The Strangers: Prey at Night [2018 BDRip 720p] DUB [] bober100 Скачать
1 | 0
Фильмы (Blu-ray, BD-Remux, HDDVD) [ 18.48 GB ] Незнакомцы: Жестокие игры / The Strangers: Prey at Night [2018 Blu-Ray 1080p] [RUS Transfer] DUB [] bober100 Скачать
1 | 0
Фильмы [HD 720p, 1080p] (Хороший звук DUB, MVO) [ 9.53 GB ] Незнакомцы: Жестокие игры / The Strangers: Prey at Night [2018 BDRip 1080p] DUB [] bober100 Скачать
1 | 0
Фильмы 2018 [DVDrip, WEB-DLRip, HDrip] (DUB, MVO) [ 1.46 GB ] Незнакомцы: Жестокие игры / The Strangers: Prey at Night [2018 BDRip] - [] Twi7ter Скачать
1 | 0

28-11-2019 20:33  

Отключить всю рекламу на сайте

    Дорогой пользователь! Огромная просьба, поблагодарите релизера, оцените раздачу и оставьте свои комментарий, если Вы скачали Незнакомцы: Жестокие игры через торрент бесплатно! Внесите свою лепту в развитие PiratBit!
    Комментировать посты могут только пользователи прошедшие не сложную регистрацию
    Показать сообщения:    

    Незнакомцы: Жестокие игры через торрент
    Скачать бесплатно Незнакомцы: Жестокие игры
    Незнакомцы: Жестокие игры скачать торрент
    Незнакомцы: Жестокие игры смотреть онлайн
    Cкачать фильм Незнакомцы: Жестокие игры бесплатно
    Незнакомцы: Жестокие игры скачать торрент в хорошем качестве
    Незнакомцы: Жестокие игры смотреть онлайн бесплатно в хорошем качестве


    Вы не можете начинать темы
    Вы не можете отвечать на сообщения
    Вы не можете редактировать свои сообщения
    Вы не можете удалять свои сообщения
    Вы не можете голосовать в опросах
    Вы не можете прикреплять файлы к сообщениям
    Вы можете скачивать файлы