1 сезон

3 сезон

iTunes

1

iTunes

DUB Netflix

iTunes

13

1 сезон

RePack

30

Deluxe

pack

Легкие деньги

ВАЖНО

ИГРА 18+

pack

RePack

MK11

RePack

jed

RePack

fifa19

RePack

RDR2

RePack

NEED FOR SPEED™ PAYBACK

4 сезон

9 сезон

Бесстыжие 9 сезон

Все сериалы

все сериалы на PB.wtf

RePack

FAR CRY 5

Anonymous, доброй ночи, мы не успеваем до 1 числа собрать деньги на оплату серверов, помогите нам пожалуйста в это трудное время. В качестве благодарности мы отключим Вам всю рекламу на сайте (укажите свой ник в строку Ваше имя)!

×
  
Magnet ссылка

Похищение (Виталий Тарасенко) [1984 г., Семейный, SATRip-AVC] pb.wtf

Похищение через торрент pb.wtf

Размер: 1.59 GB | Добавлен: 2 года 9 мес. назад | Торрент скачан:14 раз
Скачать  

29-08-2018 19:31 Похищение Скачать торрент  

Похищение
Год выпуска: 1984
Страна: СССР
Жанр: Семейный
Продолжительность: 01:24:32
Субтитры: Отсутствуют

Режиссер: Виталий Тарасенко

rating

В ролях: Михаил Ефимов, Александр Фатюшин, Алёна Бондарчук, Любовь Соколова, Пётр Щербаков, Владимир Самойлов,
Вера Кузнецова, Юрий Медведев, Юрий Саранцев, Даша Тарасенко

Описание: Поняв, что шестилетний Бориска благодаря стараниям бабушки и дедушки превращается в заласканного деспота, папа не выдержал и, воспользовавшись отъездом жены, похитил сына и уехал с ним из города...

Качество: SATRip-AVC
Формат: MKV
Видео кодек: AVC
Аудио кодек: AC3
Видео: AVC, 668х550@712x550 , 25.0fps, 2500 Kbps
Аудио#1: AC3 , 2 ch , 48 kHz , 192 kbps
скриншот   скриншот   скриншот   скриншот  

Общее
Уникальный идентификатор : 187524907345704822353842916170933437591 (0x8D13FBC29041DFBF811D60856E8F8497)
Полное имя : H:СССРПохищение 1984_SATRip-AVC.mkv
Формат : Matroska
Версия формата : Version 2
Размер файла : 1,59 Гбайт
Продолжительность : 1 ч. 24 м.
Общий поток : 2694 Кбит/сек
Название фильма : Похищение 1983_SATRip-AVC от mister.hats
Дата кодирования : UTC 2018-08-29 08:05:08
Программа кодирования : mkvmerge v5.8.0 ('No Sleep / Pillow') built on Sep 2 2012 15:37:04
Библиотека кодирования : libebml v1.2.3 + libmatroska v1.3.0

Видео
Идентификатор : 1
Формат : AVC
Формат/Информация : Advanced Video Codec
Профиль формата : High@L4.1
Настройки формата : CABAC / 14 Ref Frames
Параметр CABAC формата : Да
Параметр RefFrames формата : 14 кадров
Идентификатор кодека : V_MPEG4/ISO/AVC
Продолжительность : 1 ч. 24 м.
Битрейт : 2500 Кбит/сек
Ширина : 668 пикселей
Высота : 550 пикселей
Соотношение сторон : 1,295
Соотношение сторон в оригинале : 1,296
Режим частоты кадров : Постоянный
Частота кадров : 25,000 кадров/сек
Цветовое пространство : YUV
Субдискретизация насыщенности : 4:2:0
Битовая глубина : 8 бит
Тип развёртки : Прогрессивная
Бит/(Пиксели*Кадры) : 0.272
Размер потока : 1,45 Гбайт (91%)
Библиотека кодирования : x264 core 152 r2851kMod ba24899
Настройки программы : cabac=1 / ref=14 / deblock=1:-2:-1 / analyse=0x3:0x133 / me=umh / subme=11 / psy=1 / fade_compensate=0.00 / psy_rd=1.05:0.10 / mixed_ref=1 / me_range=48 / chroma_me=1 / trellis=2 / 8x8dct=1 / cqm=0 / deadzone=21,11 / fast_pskip=0 / chroma_qp_offset=-3 / threads=12 / lookahead_threads=2 / sliced_threads=0 / nr=0 / decimate=0 / interlaced=0 / bluray_compat=0 / constrained_intra=0 / bframes=8 / b_pyramid=2 / b_adapt=2 / b_bias=0 / direct=3 / weightb=1 / open_gop=0 / weightp=2 / keyint=250 / keyint_min=25 / scenecut=40 / intra_refresh=0 / rc_lookahead=40 / rc=2pass / mbtree=0 / bitrate=2500 / ratetol=1.0 / qcomp=0.60 / qpmin=0 / qpmax=39 / qpstep=4 / cplxblur=20.0 / qblur=0.5 / vbv_maxrate=50000 / vbv_bufsize=62500 / nal_hrd=none / filler=0 / ip_ratio=1.25 / pb_ratio=1.30 / aq=1:1.00
Язык : English
Default : Да
Forced : Нет
Цветовой диапазон : Limited
Основные цвета : BT.601 PAL
Характеристики трансфера : BT.470 System B, BT.470 System G
Коэффициенты матрицы : BT.470 System B, BT.470 System G

Аудио
Идентификатор : 2
Формат : AC-3
Формат/Информация : Audio Coding 3
Параметр Endianness формата : Big
Идентификатор кодека : A_AC3
Продолжительность : 1 ч. 24 м.
Вид битрейта : Постоянный
Битрейт : 192 Кбит/сек
Каналы : 2 канала
Расположение каналов : Front: L R
Частота : 48,0 КГц
Частота кадров : 31,250 кадров/сек (1536 SPF)
Битовая глубина : 16 бит
Метод сжатия : С потерями
Задержка видео : 11 мс.
Размер потока : 116 Мбайт (7%)
Язык : Russian
Default : Да
Forced : Нет

pb.wtf



Скачать Похищение через торрент https://pic1.kartinco.top/images/11/ewdj5.jpg Скачать фильм Похищение через торрент бесплантно в хорошем качестве Описание: Поняв, что шестилетний Бориска благодаря стараниям бабушки и дедушки превращается в заласканного деспота, папа не выдержал и, ... 10 10 2
Торрент: Зарегистрирован [2018-08-29 19:31] · скачан: 14 раз
Статус: √ проверено
Размер: 1.59 GB
Как cкачать? Как скачать Похищение через торрент | UTorrent

% Раздел Тема Автор DL S | L
Наши сериалы [ 3.56 GB ] Похищенный / Серии: 1-2 из 2 [2020 HDTV 1080i] bober100 Скачать
2 | 0
Наши сериалы [ 2.26 GB ] Похищенный / Серии: 1-2 из 2 [2020 HDTVRip 720p] bober100 Скачать
1 | 0
Фильмы 2017 [DVDrip, WEB-DLRip, HDrip] (DUB, MVO) [ 745 MB ] Вспомнить всё: Похищение / Возвращение / The Recall [2017 HDRip] MVO bober100 Скачать
1 | 0
Фильмы 2017 [DVDrip, WEB-DLRip, HDrip] (DUB, MVO) [ 1.47 GB ] Вспомнить всё: Похищение / Возвращение / The Recall [2017 BDRip] MVO Twi7ter Скачать
3 | 0
Фильмы [HD 720p, 1080p] (Хороший звук DUB, MVO) [ 4.49 GB ] Вспомнить всё: Похищение / Возвращение / The Recall [2017 BDRip 720p] MVO bober100 Скачать
1 | 0
Фильмы 2017 [DVDrip, WEB-DLRip, HDrip] (DUB, MVO) [ 1.46 GB ] Вспомнить всё: Похищение / Возвращение / The Recall [2017 HDRip] MVO bober100 Скачать
1 | 0
Азиатские фильмы [ 746 MB ] Похищение / Abduction [2019 HDRip] MVO [HDRezka Studio] bober100 Скачать
1 | 0

28-11-2019 20:33  

Отключить всю рекламу на сайте

    Дорогой пользователь! Огромная просьба, поблагодарите релизера, оцените раздачу и оставьте свои комментарий, если Вы скачали Похищение через торрент бесплатно! Внесите свою лепту в развитие PiratBit!
    Комментировать посты могут только пользователи прошедшие не сложную регистрацию
    Показать сообщения:    

    Похищение через торрент
    Скачать бесплатно Похищение
    Похищение скачать торрент
    Похищение смотреть онлайн
    Cкачать фильм Похищение бесплатно
    Похищение скачать торрент в хорошем качестве
    Похищение смотреть онлайн бесплатно в хорошем качестве


    Вы не можете начинать темы
    Вы не можете отвечать на сообщения
    Вы не можете редактировать свои сообщения
    Вы не можете удалять свои сообщения
    Вы не можете голосовать в опросах
    Вы не можете прикреплять файлы к сообщениям
    Вы можете скачивать файлы